Drama

Sling Blade (1996)

  • Download 5x Faster
  • Download torrent
  • Direct Download
  • Rate this torrent +  |  -
Sling Blade (1996)

Anonymous and Free Direct Download 300GB+


Torrent info

Name:Sling Blade (1996)

Total Size: 704.16 MB

Magnet: Magnet Link

Seeds: 0

Leechers: 0

Stream: Watch Online @ Movie4u

Last Updated: 2015-09-08 23:19:32 (Update Now)

Torrent added: 2009-09-02 16:42:08



VPN For Torrents

Torrent Files List


Sling Blade (1996).avi (Size: 704.16 MB) (Files: 2)

 Sling Blade (1996).avi

704.16 MB

 Torrent downloaded from Demonoid.com.txt

0.05 KB
 

tracker

leech seeds
 

Torrent description

!Sling Blade (1996) preview 0!

Sling Blade is the story of Karl Childers (writer-director-star Billy Bob Thornton), a man who returns home after being released from a psychiatric hospital where he had been incarcerated since age 12 for murdering his mother and her lover. On the outside, Karl (though mentally handicapped) lands a job at a garage fixing motors and befriends a young boy. But can he outrun his past? Dwight Yoakam co-stars in Thornton's Oscar-winning tour de force.

!Sling Blade (1996) preview 1!

!Sling Blade (1996) preview 2!

Format : AVI
Format/Info : Audio Video Interleave
File size : 704 MiB
Duration : 2h 14mn
Overall bit rate : 731 Kbps
Writing application : VirtualDubMod 1.5.10.2 (build 2540/release)
Writing library : VirtualDubMod build 2540/release

Video
Format : MPEG-4 Visual
Format profile : Streaming [email protected]
Format settings, BVOP : Yes
Format settings, QPel : No
Format settings, GMC : No warppoints
Format settings, Matrix : Default
Muxing mode : Packed bitstream
Codec ID : XVID
Codec ID/Hint : XviD
Duration : 2h 14mn
Bit rate : 594 Kbps
Width : 644 pixels
Height : 344 pixels
Display aspect ratio : 1.872
Frame rate : 23.976 fps
Resolution : 24 bits
Colorimetry : 4:2:0
Scan type : Progressive
Bits/(Pixel*Frame) : 0.112
Stream size : 572 MiB (81%)
Writing library : XviD 1.0.2 (UTC 2004-08-29)

Audio
Format : MPEG Audio
Format version : Version 1
Format profile : Layer 3
Codec ID : 55
Codec ID/Hint : MP3
Duration : 2h 14mn
Bit rate mode : Constant
Bit rate : 128 Kbps
Channel(s) : 2 channels
Sampling rate : 48.0 KHz
Resolution : 16 bits
Stream size : 123 MiB (18%)
Alignment : Split accross interleaves
Interleave, duration : 42 ms (1.00 video frame)
Interleave, preload duration : 500 ms

related torrents

Torrent name

health leech seeds Size
 


comments (0)

Main Menu