Drama

Sid & Nancy 1986 DVDRip XviD [

  • Download 5x Faster
  • Download torrent
  • Direct Download
  • Rate this torrent +  |  -
Sid & Nancy 1986 DVDRip XviD [

Free and Direct Download with Usenet 300GB+ free


Torrent info

Name:Sid & Nancy 1986 DVDRip XviD [

Total Size: 700.26 MB

Magnet: Magnet Link

Seeds: 0

Leechers: 0

Stream: Watch Online @ Movie4u

Last Updated: 2010-09-29 20:33:38 (Update Now)

Torrent added: 2009-09-02 16:32:53




Torrent Files List


Sid & Nancy.nfo (Size: 700.26 MB) (Files: 51)

 Sid & Nancy.nfo

2.10 KB

 Sid & Nancy.part01.rar

14.31 MB

 Sid & Nancy.part02.rar

14.31 MB

 Sid & Nancy.part03.rar

14.31 MB

 Sid & Nancy.part04.rar

14.31 MB

 Sid & Nancy.part05.rar

14.31 MB

 Sid & Nancy.part06.rar

14.31 MB

 Sid & Nancy.part07.rar

14.31 MB

 Sid & Nancy.part08.rar

14.31 MB

 Sid & Nancy.part09.rar

14.31 MB

 Sid & Nancy.part10.rar

14.31 MB

 Sid & Nancy.part11.rar

14.31 MB

 Sid & Nancy.part12.rar

14.31 MB

 Sid & Nancy.part13.rar

14.31 MB

 Sid & Nancy.part14.rar

14.31 MB

 Sid & Nancy.part15.rar

14.31 MB

 Sid & Nancy.part16.rar

14.31 MB

 Sid & Nancy.part17.rar

14.31 MB

 Sid & Nancy.part18.rar

14.31 MB

 Sid & Nancy.part19.rar

14.31 MB

 Sid & Nancy.part20.rar

14.31 MB

 Sid & Nancy.part21.rar

14.31 MB

 Sid & Nancy.part22.rar

14.31 MB

 Sid & Nancy.part23.rar

14.31 MB

 Sid & Nancy.part24.rar

14.31 MB

 Sid & Nancy.part25.rar

14.31 MB

 Sid & Nancy.part26.rar

14.31 MB

 Sid & Nancy.part27.rar

14.31 MB

 Sid & Nancy.part28.rar

14.31 MB

 Sid & Nancy.part29.rar

14.31 MB

 Sid & Nancy.part30.rar

14.31 MB

 Sid & Nancy.part31.rar

14.31 MB

 Sid & Nancy.part32.rar

14.31 MB

 Sid & Nancy.part33.rar

14.31 MB

 Sid & Nancy.part34.rar

14.31 MB

 Sid & Nancy.part35.rar

14.31 MB

 Sid & Nancy.part36.rar

14.31 MB

 Sid & Nancy.part37.rar

14.31 MB

 Sid & Nancy.part38.rar

14.31 MB

 Sid & Nancy.part39.rar

14.31 MB

 Sid & Nancy.part40.rar

14.31 MB

 Sid & Nancy.part41.rar

14.31 MB

 Sid & Nancy.part42.rar

14.31 MB

 Sid & Nancy.part43.rar

14.31 MB

 Sid & Nancy.part44.rar

14.31 MB

 Sid & Nancy.part45.rar

14.31 MB

 Sid & Nancy.part46.rar

14.31 MB

 Sid & Nancy.part47.rar

14.31 MB

 Sid & Nancy.part48.rar

14.31 MB

 Sid & Nancy.part49.rar

13.61 MB

 Sid & Nancy.sfv

4.65 KB
 

Announce URL: http://tracker.ilovetorrents.com/announce.php

Torrent description

Format : AVI
Format/Info : Audio Video Interleave
File size : 700 MiB
Duration : 1h 53mn
Overall bit rate : 864 Kbps
Writing application : VirtualDubMod 1.5.4.1 (build 2178/release)
Writing library : VirtualDubMod build 2178/release

Video
Format : MPEG-4 Visual
Format profile : Streaming [email protected]
Format settings, BVOP : Yes
Format settings, QPel : No
Format settings, GMC : No warppoints
Format settings, Matrix : Custom
Codec ID : XVID
Codec ID/Hint : XviD
Duration : 1h 53mn
Bit rate : 737 Kbps
Width : 608 pixels
Height : 336 pixels
Display aspect ratio : 16/9
Frame rate : 23.976 fps
Resolution : 24 bits
Colorimetry : 4:2:0
Scan type : Progressive
Bits/(Pixel*Frame) : 0.151
Stream size : 598 MiB (85%)
Writing library : XviD 1.1.0 (UTC 2005-11-22)

Audio
Format : MPEG Audio
Format version : Version 1
Format profile : Layer 3
Codec ID : 55
Codec ID/Hint : MP3
Duration : 1h 53mn
Bit rate mode : Variable
Bit rate : 113 Kbps
Minimum bit rate : 128 Kbps
Channel(s) : 2 channels
Sampling rate : 48.0 KHz
Resolution : 16 bits
Stream size : 92.0 MiB (13%)
Alignment : Aligned on interleaves
Interleave, duration : 24 ms (0.58 video frame)
Interleave, preload duration : 162 ms
Writing library : LAME3.97b
Encoding settings : ABR



Morbid biographical story of Sid Vicious, bassist with British punk group the Sex Pistols, and his girlfriend Nancy Spungen. When the Sex Pistols break up after their fateful US tour, Vicious attempts a solo career while in the grip of heroin addiction. One morning, Nancy is found stabbed to death and Sid is arrested for her murder.

related torrents

Torrent name

health leech seeds Size
 

comments (0)

Main Menu