Drama

Schindler's List 1993 HDTVrip 720p 5_1_ch AVCHD h264 AAC subs 3h6m mp4 +Sample [RipMinion]

  • Download 5x Faster
  • Download torrent
  • Direct Download
  • Rate this torrent +  |  -

Torrent info

Name:Schindler's List 1993 HDTVrip 720p 5_1_ch AVCHD h264 AAC subs 3h6m mp4 +Sample [RipMinion]

Total Size: 1.94 GB

Magnet: Magnet Link

Seeds: 0

Leechers: 0

Stream: Watch Online @ Movie4u

Last Updated: 2012-09-05 08:20:26 (Update Now)

Torrent added: 2009-09-02 16:01:30





Torrent Files List


Schindler's List 1993 (back).JPG (Size: 1.94 GB) (Files: 17)

 Schindler's List 1993 (back).JPG

147.52 KB

 Schindler's List 1993 (cover).jpg

364.16 KB

 Schindler's List 1993 (disc).JPG

85.56 KB

 Schindler's List 1993 (front).JPG

87.50 KB

 Schindler's List 1993 (imdb.org tt0108052).URL

0.06 KB

 Schindler's List 1993 HDTVrip - SAMPLE.mp4

27.92 MB

 Schindler's List 1993 HDTVrip - text info.nfo

5.49 KB

 Schindler's List 1993 HDTVrip 720p 5.1 ch AVCHD h264 AAC subs 3h6m.mp4

1.91 GB

 Schindler's List 1993 HDTVrip 720p 5.1 ch AVCHD h264 AAC subs 3h6m.srt

166.36 KB

 trackers

  tracked_by_1337x_org.txt

0.02 KB

  tracked_by_Demonoid.com.txt

0.05 KB

  tracked_by_h33t_com.txt

0.02 KB

  tracked_by_hexagon.cc.txt

0.02 KB

  tracked_by_OpenBitTorrent.com.txt

0.03 KB

 ~ RipMinion ~ Rare Torrents (h33t.com 148823).URL

0.07 KB

 ~ RipMinion ~ Rare Torrents (www.1337x.org user_51839).URL

0.08 KB

 ~Rare Improved-Cut Movies (fanedit.org).URL

0.08 KB
 

Announce URL: http://tracker.hexagon.cc:2710/announce

Torrent description

.
Schindler's List 1993 HDTVrip 720p 5.1 ch AVCHD h264 AAC subs 3h6m .mp4

I sought a reasonably-sized 720p AVCHD Compliant (BluRay/PS3/XBOX-ready) torrent of 'Schindler's List' movie for the lady, but no luck. So, I created one, for our media center and to share. (fyi, the picture art was scrounged from cdcovers.cc so it's not necessarily entirely indicative).

Details, Ratings, Reviews : http://www.imdb.com/title/tt0108052/
Picture of Cover : Schindler's List 1993 HDTVrip 720p 5_1_ch AVCHD h264 AAC subs 3h6m mp4 +Sample [RipMinion] preview 0 *
Picture of Disc : Schindler's List 1993 HDTVrip 720p 5_1_ch AVCHD h264 AAC subs 3h6m mp4 +Sample [RipMinion] preview 1 *
Azureus/Vuze Magnet link : magnet:?xt=urn:btih:PBHRP4JKDQUHMBSZNNPFAK2JEMODPPHW
8GB version .torrent : http://www.mininova.org/tor/2460009
~ RipMinion ~ Rare Torrents : http://h33t.com/userdetails.php?id=148823
~ RipMinion ~ Rare Torrents : http://1337x.org/user_51839
* Some picture art was scrounged from cdcovers.cc so it's not necessarily entirely indicative.


Encode settings 'inspired by secretmyth & newartriot' for an Optimal blend of Compression, Quality, and AVCHD compliancy (BluRay/PS3/XBOX-ready).


General
Complete name : Schindler's List 1993 HDTVrip 720p 5.1 ch AVCHD h264 AAC subs 3h6m .mp4
Format : MPEG-4
Format profile : Base Media
Codec ID : isom
File size : 1.22 GiB
Duration : 3h 6mn
Overall bit rate : 1 462 Kbps

Video
AVCHD Compliant : BluRay/PS3/XBOX ready; no re-encode!
Format : AVC (h264)
Format/Info : Advanced Video Codec
Format profile : [email protected]
Format settings, CABAC : Yes
Format settings, ReFrames : 3 frames
Codec ID : avc1
Codec ID/Info : Advanced Video Coding
Bit rate mode : Variable
Bit rate : 1 280 Kbps (2-pass)
Maximum bit rate : 4 975 Kbps
Width : 1 280 pixels
Height : 720 pixels (720p)
Display aspect ratio : 16/9
Frame rate mode : Constant
Frame rate : 25.000 fps
Resolution : 24 bits
Colorimetry : 4:2:0
Scan type : Progressive
Bits/(Pixel*Frame) : 0.056
Stream size : 1.67 GiB (87%)
Writing library : x264 core 67 r1171M 2c7cb4c
Encoding settings : cabac=1 / ref=3 / deblock=1:-1:0 / analyse=0x3:0x133 / me=umh / subme=9 / psy_rd=1.0:0.2 / mixed_ref=1 / me_range=64 / chroma_me=1 / trellis=2 / 8x8dct=1 / cqm=0 / deadzone=21,11 / chroma_qp_offset=-3 / threads=3 / nr=0 / decimate=1 / mbaff=0 / bframes=3 / b_pyramid=1 / b_adapt=2 / b_bias=0 / direct=3 / wpredb=1 / keyint=250 / keyint_min=25 / scenecut=40 / rc=2pass / bitrate=1280 / ratetol=1.0 / qcomp=0.60 / qpmin=10 / qpmax=51 / qpstep=4 / cplxblur=20.0 / qblur=0.5 / vbv_maxrate=9700 / vbv_bufsize=9700 / ip_ratio=1.40 / pb_ratio=1.30 / aq=1:1.00


Audio
Format : AAC, Nero AAC Encoder v1.3.3.0
Format/Info : Advanced Audio Codec
Format version : Version 4
Format profile : LC (AAC-HE v1 extension)
Format settings, SBR : Yes
Format settings, PS : No
Codec ID : 40
Bit rate mode : Variable
Bit rate : 180 Kbps (-he -q 0.25 ~transparent)
Maximum bit rate : 226 Kbps
Channel(s) : 6 channels (5.1 Surround Sound)
Channel positions : Front: L C R, Rear: L R, LFE
Sampling rate : 48.0 KHz
Resolution : 16 bits
Stream size : 240 MiB (12%)
Language : English
Subtitles : English


Encode process details / FAQ : http://ripminion.pastebay.com/
Subtitle Search Engine 1 : http://www.opensubtitles.org/en/search22/sublanguageid-eng
Subtitle Search Engine 2 : http://subscene.com/filmsearch.aspx
Subtitle Search Engine 3 : http://www.subtitlesource.org/
More rare improved-cut movies : http://fanedit.org/ then http://fanedit.info/
~ RipMinion ~ Rare Torrents : http://h33t.com/userdetails.php?id=148823
~ RipMinion ~ Rare Torrents : http://1337x.org/user_51839


Playback issues? Here's the easy fix: http://www.videolan.org/vlc/

For fast & easy Convert-to-AVCHD, Burn, and Play on BluRay/PS3/XBOX from a variety of disc types (DVD-R, DVD+R_DL, BD-R, etc.), I recommend multiAVCHD freeware {link follows}. It can auto-generate a slick customizable 'iTunes-style' slide menu for multiple movies and burn all to a single disc! Or, if desired, it can span across several discs. 100% AVCHD Compliant Video, such as this, is quickly made ready (Non-compliant video is automatically re-encoded thus reducing quality, wasting time, and bloating file size):

http://www.videohelp.com/tools/multiAVCHD
http://sourceforge.net/projects/avisynth2/files/
http://www.videohelp.com/tools/eac3to
http://www.videohelp.com/tools/ffmpeg
http://ImgBurn.com/

For fast & easy Convert-to-DVD, Burn, and Play on any DVD Player from DVD-R or DVD+R_DL media, I recommend 'ConvertXtoDVD', either buy or search for the Torrent.


Please feel free to post constructive feedback, questions, comments, etc.

I really appreciate you helping seed at any capacity you can spare.

Enjoy the show,
~ RipMinion ~

.

related torrents

Torrent name

health leech seeds Size
 

comments (0)

Main Menu