Movies

W Delta Z 2007 720p Bluray X264 resistance

  • Download 5x Faster
  • Download torrent
  • Direct Download
  • Rate this torrent +  |  -
W Delta Z 2007 720p Bluray X264 resistance

Anonymous and Free Direct Download


Torrent info

Name:W Delta Z 2007 720p Bluray X264 resistance

Total Size: 2.00 GB

Magnet: Magnet Link

Seeds: 0

Leechers: 0

Stream: Watch Online @ Movie4u

Last Updated: 2014-02-05 05:29:35 (Update Now)

Torrent added: 2009-06-12 14:21:04



VPN For Torrents

Torrent Files List


tracked_by_h33t_com.txt (Size: 0.02 KB) (Files: 1)

 tracked_by_h33t_com.txt

0.02 KB
 

Announce URL:

Torrent description

General



Format: Matroska

File size: 4.37 GiB

Duration: 1h 43mn

Overall bit rate: 6 024 Kbps



Video



Format: AVC

Format/Info: Advanced Video Codec

Format profile: [email protected]

Format settings, CABAC: Yes

Format settings, ReFrames: 5 frames

Muxing mode: Container [email protected]

Codec ID: V_MPEG4/ISO/AVC

Duration: 1h 43mn

Bit rate: 5 263 Kbps

Nominal bit rate: 5 380 Kbps

Width: 1 280 pixels

Height: 672 pixels

Display aspect ratio: 1.905

Frame rate: 23.976 fps

Resolution: 24 bits

Colorimetry: 4:2:0

Scan type: Progressive

Bits/(Pixel*Frame): 0.255

Stream size: 3.82 GiB (87%)

Writing library: x264 core 67 r1153 7b6ce6a

Encoding settings: cabac=1 / ref=5 / deblock=1:0:0 / analyse=0x3:0x133 / me=umh / subme=7 / psy_rd=1.0:0.0 / mixed_ref=1 / me_range=16 / chroma_me=1 / trellis=1 / 8x8dct=1 / cqm=2 / deadzone=21,11 / chroma_qp_offset=-2 / threads=3 / nr=0 / decimate=1 / mbaff=0 / bframes=3 / b_pyramid=1 / b_adapt=1 / b_bias=0 / direct=1 / wpredb=1 / keyint=250 / keyint_min=25 / scenecut=40 / rc=2pass / bitrate=5380 / ratetol=1.0 / qcomp=0.60 / qpmin=10 / qpmax=51 / qpstep=4 / cplxblur=20.0 / qblur=0.5 / ip_ratio=1.40 / pb_ratio=1.30 / aq=1:1.00

Language: English



Audio



Format: AC-3

Format/Info: Audio Coding 3

Codec ID: A_AC3

Duration: 1h 43mn

Bit rate mode: Constant

Bit rate: 640 Kbps

Channel(s): 6 channels

Channel positions: Front: L C R, Surround: L R, LFE

Sampling rate: 48.0 KHz

Stream size: 476 MiB (11%)

Language: English



Subtitles: Dutch