Drama

Romance DVDRip XviD nsiervi 700Mb

  • Download 5x Faster
  • Download torrent
  • Direct Download
  • Rate this torrent +  |  -
Romance DVDRip XviD nsiervi 700Mb

Anonymous and Direct Download 300GB+ free


Torrent info

Name:Romance DVDRip XviD nsiervi 700Mb

Total Size: 695.70 MB

Magnet: Magnet Link

Seeds: 0

Leechers: 0

Stream: Watch Online @ Movie4u

Last Updated: 2010-04-20 15:05:02 (Update Now)

Torrent added: 2009-09-02 15:36:50




Torrent Files List


Romance.DVDRip.XviD-nsiervi.avi (Size: 695.70 MB) (Files: 1)

 Romance.DVDRip.XviD-nsiervi.avi

695.70 MB
 

Announce URL: http://tracker.thepiratebay.org/announce

Torrent description

Cinema Nacional
Apresenta

( Romance ) ( Audio PT-Br )

Sinopse:
Ana (Letícia Sabatella) e Afonso (Wagner Moura), dois jovens atores, se apaixonam durante a montagem teatral do Romance de Tristão e Isolda. Ao mesmo tempo que recriam a história deste casal mítico que está na origem de todos os casais românticos, eles tentam descobrir para si próprios uma nova forma de se relacionar, menos trágica e mais livre, porém carregada da mesma emoção. Ao narrar o romance contemporâneo de Ana e Afonso, tendo como pano de fundo o romance clássico de Tristão e Isolda, Romance é uma história de amor e uma história sobre o amor.

Elenco:
Wagner Moura ... Pedro
Letícia Sabatella ... Ana
Andrea Beltrão
José Wilker
Bruno Garcia
Tonico Pereira
Vladimir Brichta ... Orlando
Edmilson Barros
Marco Nanini

Infos do Filme:
Título no Brasil: Romance
Título Original: Romance
País de Origem: Brasil
Gênero: Drama
Classificação etária: 14 anos
Tempo de Duração: 105 minutos
Ano de Lançamento: 2008
Estréia no Brasil: 14/11/2008
Site Oficial:
Estúdio/Distrib.: Buena Vista Pictures
Direção: Guel Arraes
Link IMDB: http://www.imdb.com/title/tt0884177/

Dados do Arquivo:
Complete name : E:\Romance Lançamento\Romance.DVDRip.XviD-nsiervi_700Mb\Romance.DVDRip.XviD-nsiervi.avi
Format : AVI
Format/Info : Audio Video Interleave
File size : 696 MiB
Duration : 1h 44mn
Overall bit rate : 929 Kbps
Writing application : VirtualDubMod 1.5.10.2 (build 2540/release)
Writing library : VirtualDubMod build 2540/release

Video
Format : MPEG-4 Visual
Format profile : Streaming [email protected]
Format settings, BVOP : Yes
Format settings, QPel : No
Format settings, GMC : No warppoints
Format settings, Matrix : Default
Codec ID : XVID
Codec ID/Hint : XviD
Duration : 1h 44mn
Bit rate : 792 Kbps
Width : 592 pixels
Height : 320 pixels
Display aspect ratio : 1.850
Frame rate : 23.976 fps
Resolution : 24 bits
Colorimetry : 4:2:0
Scan type : Progressive
Bits/(Pixel*Frame) : 0.174
Stream size : 593 MiB (85%)
Writing library : XviD 1.1.2 (UTC 2006-11-01)

Audio
Format : MPEG Audio
Format version : Version 1
Format profile : Layer 3
Codec ID : 55
Codec ID/Hint : MP3
Duration : 1h 44mn
Bit rate mode : Constant
Bit rate : 128 Kbps
Channel(s) : 2 channels
Sampling rate : 48.0 KHz
Resolution : 16 bits
Stream size : 95.8 MiB (14%)
Alignment : Aligned on interleaves
Interleave, duration : 42 ms (1.00 video frame)
Interleave, preload duration : 504 ms


Thx From Brazil

related torrents

Torrent name

health leech seeds Size
 


comments (0)

Main Menu