Drama

Robert Bresson Mouchette (1967) DVDRip x264

  • Download 5x Faster
  • Download torrent
  • Direct Download
  • Rate this torrent +  |  -
Robert Bresson Mouchette (1967) DVDRip x264

Free and Direct Download with Usenet.nl 300GB+ free


Torrent info

Name:Robert Bresson Mouchette (1967) DVDRip x264

Total Size: 1.46 GB

Magnet: Magnet Link

Seeds: 0

Leechers: 0

Stream: Watch Online @ Movie4u

Last Updated: 0000-00-00 00:00:00 (Update Now)

Torrent added: 2009-09-02 15:30:31





Torrent Files List


Mouchette.1967.DVDRip.x264.AC3.Fre.Subs.Comments.mkv (Size: 1.46 GB) (Files: 1)

 Mouchette.1967.DVDRip.x264.AC3.Fre.Subs.Comments.mkv

1.46 GB
 

Announce URL:

Torrent description

Notice: make sure your PC can play x264 encodes.

Synopsis: Robert Bresson plumbs great reservoirs of feeling with Mouchette, one of the most searing portraits of human desperation ever put on film. Faced with a dying mother, an absent, alcoholic father, and a baby brother in need of care, the teenage Mouchette seeks solace in nature and daily routine, a respite from her economic and pubescent turmoil. An essential work of French filmmaking, Bresson's hugely empathetic drama elevates its trapped protagonist into one of the cinema's great tragic figures.

Source: The Criterion Collection

Original French audio, English and Russian subtitles

+ English audio commentary by renowned film scholar, critic, and festival programmer Tony Rayns

General
Format : Matroska
File size : 1.46 GiB
Duration : 1h 21mn
Overall bit rate : 2 552 Kbps
Encoded date : UTC 2009-06-25 08:31:22
Writing application : mkvmerge v2.9.5 ('Tu es le seul') built on Jun 7 2009 11:07:07
Writing library : libebml v0.7.7 + libmatroska v0.8.1

Video
ID : 5
Format : AVC
Format/Info : Advanced Video Codec
Format profile : [email protected]
Format settings, CABAC : Yes
Format settings, ReFrames : 16 frames
Muxing mode : Container [email protected]
Codec ID : V_MPEG4/ISO/AVC
Duration : 1h 21mn
Bit rate : 2 115 Kbps
Nominal bit rate : 2 165 Kbps
Width : 656 pixels
Height : 480 pixels
Display aspect ratio : 1.667
Frame rate : 23.976 fps
Resolution : 24 bits
Colorimetry : 4:2:0
Scan type : Progressive
Bits/(Pixel*Frame) : 0.280
Stream size : 1.21 GiB (83%)
Writing library : x264 core 67 r1171M 2c7cb4c
Encoding settings : cabac=1 / ref=16 / deblock=1:0:0 / analyse=0x3:0x133 / me=umh / subme=8 / psy_rd=1.0:0.0 / mixed_ref=1 / me_range=16 / chroma_me=0 / trellis=2 / 8x8dct=1 / cqm=0 / deadzone=21,11 / chroma_qp_offset=-4 / threads=3 / nr=0 / decimate=0 / mbaff=0 / bframes=9 / b_pyramid=1 / b_adapt=2 / b_bias=0 / direct=3 / wpredb=1 / keyint=250 / keyint_min=25 / scenecut=40 / rc=2pass / bitrate=2165 / ratetol=1.0 / qcomp=0.60 / qpmin=10 / qpmax=51 / qpstep=4 / cplxblur=20.0 / qblur=0.5 / ip_ratio=1.40 / pb_ratio=1.30 / aq=1:1.00 / zones=0,900,q=40/116849,117599,q=40

Audio #1
ID : 1
Format : AC-3
Format/Info : Audio Coding 3
Codec ID : A_AC3
Duration : 1h 21mn
Bit rate mode : Constant
Bit rate : 192 Kbps
Channel(s) : 1 channel
Channel positions : C
Sampling rate : 48.0 KHz
Stream size : 112 MiB (8%)
Language : French

Audio #2
ID : 2
Format : AC-3
Format/Info : Audio Coding 3
Codec ID : A_AC3
Duration : 1h 21mn
Bit rate mode : Constant
Bit rate : 192 Kbps
Channel(s) : 1 channel
Channel positions : C
Sampling rate : 48.0 KHz
Stream size : 112 MiB (8%)
Title : Commentary
Language : English

Text #1
ID : 3
Format : VobSub
Codec ID : S_VOBSUB
Codec ID/Info : The same subtitle format used on DVDs
Language : Russian

Text #2
ID : 4
Format : VobSub
Codec ID : S_VOBSUB
Codec ID/Info : The same subtitle format used on DVDs
Language : English


*********************************** FREAKYFLICKS ************************************

'If we all seed just 1:1, give at least what we take, this torrent will NEVER DIE'

related torrents

Torrent name

health leech seeds Size

Abecedario Robert Bresson

4 6 449.12 MB 0
 

comments (0)

Main Menu