Drama

Rise Of The Footsoldier [2007] [Eng] [AC3] [DVDrip M333] FLAWL3SS RG

  • Download 5x Faster
  • Download torrent
  • Direct Download
  • Rate this torrent +  |  -
Rise Of The Footsoldier [2007] [Eng] [AC3] [DVDrip M333] FLAWL3SS RG

Free and Direct Download with Usenet 300GB+ free


Torrent info

Name:Rise Of The Footsoldier [2007] [Eng] [AC3] [DVDrip M333] FLAWL3SS RG

Total Size: 700.43 MB

Magnet: Magnet Link

Seeds: 0

Leechers: 0

Stream: Watch Online @ Movie4u

Last Updated: 2010-12-27 11:05:04 (Update Now)

Torrent added: 2009-09-02 15:27:56




Torrent Files List


Logo.jpg (Size: 700.43 MB) (Files: 5)

 Logo.jpg

205.50 KB

 nfo.txt

2.66 KB

 Rise Of The Footsoldier [2007] [Eng] [AC3] [DVDrip-M333] FLAWL3SS_RG.avi

698.35 MB

 Rise_Of_The_Foot_Soldier_R2.jpg

1.88 MB

 Torrent downloaded from Demonoid.com.txt

0.05 KB
 

Announce URL: http://tpb.tracker.thepiratebay.org:80/announce

Torrent description

General
Complete name : Rise Of The Footsoldier [2007] [Eng] [AC3] [DVDrip-M333] FLAWL3SS_RG.avi
Format : AVI
Format/Info : Audio Video Interleave
File size : 698 MiB
Duration : 1h 54mn
Overal bit rate : 855 Kbps
Movie name : Rise Of The Footsoldier [2007] [Eng] [AC3] [DVDrip-M333] FLAWL3SS_RG
Director : M333
Writing application : M333-FLAWL3SS_RG
Product : R T F

Video
Format : MPEG-4 Visual
Format profile : [email protected]
Format settings, BVOP : No
Format settings, QPel : No
Format settings, GMC : No warppoints
Format settings, Matrix : Default
Codec ID : XVID
Codec ID/Hint : XviD
Duration : 1h 54mn
Bit rate : 652 Kbps
Width : 592 pixels
Height : 328 pixels
Display aspect ratio : 16/9
Frame rate : 25.000 fps
Resolution : 8 bits
Colorimetry : 4:2:0
Scan type : Progressive
Bits/(Pixel*Frame) : 0.134
Stream size : 533 MiB
Writing library : XviD 1.1.2 (UTC 2006-11-01)

Audio
Format : AC-3
Format/Info : Audio Coding 3
Codec ID : 2000
Duration : 1h 54mn
Bit rate mode : Constant
Bit rate : 192 Kbps
Channel(s) : 2 channels
Channel positions : L R
Sampling rate : 48.0 KHz
Stream size : 157 MiB
Language : english

IMDB

http://www.imdb.com/title/tt0901507/

HASH

DCBAA0B355CDC09B29CEB84031DF21DBCCBE8B0F

Screens

Rise Of The Footsoldier [2007] [Eng] [AC3] [DVDrip M333] FLAWL3SS RG preview 0

Rise Of The Footsoldier [2007] [Eng] [AC3] [DVDrip M333] FLAWL3SS RG preview 1

Rise Of The Footsoldier [2007] [Eng] [AC3] [DVDrip M333] FLAWL3SS RG preview 2

Rise Of The Footsoldier [2007] [Eng] [AC3] [DVDrip M333] FLAWL3SS RG preview 3

Rise Of The Footsoldier [2007] [Eng] [AC3] [DVDrip M333] FLAWL3SS RG preview 4

Trackers

http://tpb.tracker.thepiratebay.org:80/announce

http://denis.stalker.h3q.com:6969/announce

http://open.tracker.thepiratebay.org/announce

http://www.torrentsnipe.info:2701/announce

http://open.tracker.thepiratebay.org/announce

http://vip.tracker.thepiratebay.org:80/announce

http://inferno.demonoid.com:3390/announce



related torrents

Torrent name

health leech seeds Size
 

comments (0)

Main Menu