Drama

Reves de poussiere [Dreams Of Dust]DVDRip XviD iAPULA

  • Download 5x Faster
  • Download torrent
  • Direct Download
  • Rate this torrent +  |  -
Reves de poussiere [Dreams Of Dust]DVDRip XviD iAPULA

Anonymous and Direct Download 300GB+ free


Torrent info

Name:Reves de poussiere [Dreams Of Dust]DVDRip XviD iAPULA

Total Size: 697.86 MB

Magnet: Magnet Link

Seeds: 2

Leechers: 0

Stream: Watch Online @ Movie4u

Last Updated: 2015-09-07 14:07:47 (Update Now)

Torrent added: 2009-09-02 15:24:11




Torrent Files List


Reves de poussiere [Dreams.Of.Dust]DVDRip.XviD-iAPULA pt-br.srt (Size: 697.86 MB) (Files: 4)

 Reves de poussiere [Dreams.Of.Dust]DVDRip.XviD-iAPULA pt-br.srt

29.80 KB

 Reves de poussiere [Dreams.Of.Dust]DVDRip.XviD-iAPULA-English.srt

29.38 KB

 Reves de poussiere [Dreams.Of.Dust]DVDRip.XviD-iAPULA.avi

697.80 MB

 Torrent downloaded from Demonoid.com.txt

0.05 KB
 

tracker

leech seeds
 

Torrent description

Director:
Laurent Salgues
Writer:
Laurent Salgues (writer)
Release Date:
30 January 2008 (France) more
Genre:
Drama
Plot:
A Nigerian peasant comes looking for work in Essakane, a dusty gold mine in Northeast Burkina Faso, where he hopes to forget the past that haunts him.

Cast
(Credited cast)
Makena Diop
Rasmane Ouedraogo
Souleymane Souré
Fatou Tall-Salgues
Joseph B. Tapsoba
subtitles:
Portuguese(Brazil)[oebrio51] and English

General
Complete name ::Reves de poussiere [Dreams.Of.Dust]DVDRip.XviD-iAPULA.avi
Format : AVI
Format/Info : Audio Video Interleave
File size : 698 MiB
Duration : 1h 23mn
Overal bit rate : 1175 Kbps
Writing application : VirtualDubMod 1.5.10.2 (build 2540/release)
Writing library : VirtualDubMod build 2540/release

Video
Format : MPEG-4 Visual
Format profile : Streaming [email protected]
Format settings, BVOP : Yes
Format settings, QPel : No
Format settings, GMC : No warpoints
Format settings, Matrix : Default
Muxing mode : Packet Bitstream
Codec ID : XVID
Codec ID/Hint : XviD
Duration : 1h 23mn
Bit rate : 952 Kbps
Width : 704 pixels
Height : 304 pixels
Display aspect ratio : 2.35
Frame rate : 23.976 fps
Resolution : 8 bits
Colorimetry : 4:2:0
Scan type : Progressive
Bits/(Pixel*Frame) : 0.186
Stream size : 565 MiB
Writing library : XviD 1.1.2 (UTC 2006-11-01)

Audio
Format : MPEG Audio
Format version : Version 1
Format profile : Layer 3
Codec ID : 55
Codec ID/Hint : MP3
Duration : 1h 23mn
Bit rate mode : Variable
Bit rate : 210 Kbps
Minimum bit rate : 32.0 Kbps
Channel(s) : 2 channels
Sampling rate : 48.0 KHz
Resolution : 16 bits
Stream size : 125 MiB
Writing library : LAME3.97b
Encoding settings : VBR (mtrh)

related torrents

Torrent name

health leech seeds Size
 


comments (0)

Main Menu