Drama

Return to Paradise (1998) NORDIC SUBS

  • Download 5x Faster
  • Download torrent
  • Direct Download
  • Rate this torrent +  |  -
Return to Paradise (1998) NORDIC SUBS

Anonymous and Free Direct Download


Torrent info

Name:Return to Paradise (1998) NORDIC SUBS

Total Size: 697.46 MB

Magnet: Magnet Link

Seeds: 0

Leechers: 0

Stream: Watch Online @ Movie4u

Last Updated: 2011-01-25 19:14:12 (Update Now)

Torrent added: 2009-09-02 15:23:25



VPN For Torrents

Torrent Files List


Info about this release.txt (Size: 697.46 MB) (Files: 7)

 Info about this release.txt

4.61 KB

 Nordic subtitles (optional)

  Dansk.rar

537.14 KB

  Norsk.rar

506.14 KB

  Notes on subtitle files.txt

1.69 KB

  Suomi.rar

506.72 KB

  Svenska.rar

525.38 KB

 Return to Paradise (1998)Joaquin Phoenix+Anne Heche NORSUBS_Kuth.avi

695.43 MB
 

Announce URL:

Torrent description

Return to Paradise (1998)
Optional subtitles in idx/sub format:
Danish, Finnish, Norwegian, Swedish

With Vince Vaughn (Wedding Crashers)
Joaquin Phoenix (Walk the Line, Ladder 49)
Anne Heche (Wag the Dog)

How far would you go to save a friend from the death penalty? To Malaysia? To serve in prison and risk the death penalty for yourself?
After 'Midnight Express', one should think that young Americans would understand the message and NOT go to exotic countries to be involved with larger quantities of drugs.

I could not find a torrent for this good film anywhere, so I made a rip.

Widescreen 720x288, 2-pass DVDrip XviD, good stereo
Burn tested, runs well in both my standalone DivX players.


Format/Info : Audio Video Interleave
File size : 695 MiB
Duration : 1h 47mn
Overal bit rate : 908 Kbps

Video
Format : MPEG-4 Visual
Format profile : Streaming [email protected]
Format settings, BVOP : Yes
Format settings, QPel : No
Format settings, GMC : No warppoints
Format settings, Matrix : Default
Muxing mode : Packet Bitstream
Codec ID : XVID
Codec ID/Hint : XviD
Duration : 1h 47mn
Bit rate : 770 Kbps
Width : 720 pixels
Height : 288 pixels
Display aspect ratio : 2.500
Frame rate : 25.000 fps
Resolution : 8 bits
Colorimetry : 4:2:0
Scan type : Progressive
Bits/(Pixel*Frame) : 0.149
Stream size : 590 MiB
Writing library : XviD 1.2.0.dev47 (UTC 2006-11-01)

Audio
Format : MPEG Audio
Format version : Version 1
Format profile : Layer 3
Codec ID : 55
Codec ID/Hint : MP3
Duration : 1h 47mn
Bit rate mode : Constant
Bit rate : 128 Kbps
Minimum bit rate : 128 Kbps
Channel(s) : 2 channels
Sampling rate : 48.0 KHz
Resolution : 16 bits
Stream size : 98.0 MiB
Writing library : LAME3.97
Encoding settings : CBR

Source: PAL rental (note that PAL/NTSC will give no problems for avi files)

Thanks to Kuthumi!

related torrents

Torrent name

health leech seeds Size
 


comments (0)

Main Menu