Horror

The Changeling DVDRipKooKoo

  • Download 5x Faster
  • Download torrent
  • Direct Download
  • Rate this torrent +  |  -
The Changeling DVDRipKooKoo

Anonymous and Free Direct Download


Torrent info

Name:The Changeling DVDRipKooKoo

Total Size: 1.05 GB

Magnet: Magnet Link

Seeds: 0

Leechers: 0

Stream: Watch Online @ Movie4u

Last Updated: 2012-10-29 05:49:44 (Update Now)

Torrent added: 2008-07-02 21:35:18



VPN For Torrents

Torrent Files List


Subtitles (Size: 1.05 GB) (Files: 7)

 Subtitles

  The Changeling [DVDRip][KooKoo].idx

97.48 KB

  The Changeling [DVDRip][KooKoo].sub

8.44 MB

 KooKoo.nfo

5.88 KB

 Sample.avi

4.69 MB

 The Changeling [DVDRip][KooKoo].avi

1.04 GB

 Torrent downloaded from Demonoid.com.txt

0.05 KB

 tracked_by_h33t_com.txt

0.02 KB
 

Announce URL:

Torrent description

*******************************************************************************
The Changeling (1980)
*******************************************************************************

Here is an award-winning feature that boldly mixes a frightful ghost story with a great suspense plot and
keeps you guessing all the way.

George C. Scott and Trish Van Devere star in a thriller that challenges the viewer to solve its mystery. It's
a haunted-house adventure complete with seances, nocturnal grave-diggings, ghostly spirits, and an
ancient puzzle jealously guarded by a devious man (Academy Award winner Melvyn Douglas). Scott is
splendid as the man who becomes an unwilling instrument of a ghost's revenge and learns to trust no
one. Eerily entwining a detective story with the mystery of the supernatural, The Changeling delivers
solid entertainment and a frightening good time.

http://www.imdb.com/title/tt0080516/

*******************************************************************************
File Information
*******************************************************************************
General
Complete name : The Changeling [DVDRip][KooKoo].avi
Format : AVI
Format/Info : Audio Video Interleave
File size : 1.04 GiB
Duration : 1h 46mn
Overal bit rate : 1396 Kbps
Movie name : The Changeling
Director : Ripped By KooKoo
Writing application : Lavf51.19.0
Product : DVD_VOLUME
Comment : Includes English Spanish French subtitles

Video
Format : MPEG-4 Visual
Format profile : [email protected]
Format settings, BVOP : No
Format settings, QPel : No
Format settings, GMC : No warppoints
Format settings, Matrix : Default
Codec ID : XVID
Codec ID/Hint : XviD
Duration : 1h 46mn
Bit rate : 1193 Kbps
Width : 624 pixels
Height : 352 pixels
Display aspect ratio : 16/9
Frame rate : 23.976 fps
Resolution : 8 bits
Colorimetry : 4:2:0
Scan type : Progressive
Bits/(Pixel*Frame) : 0.227
Stream size : 910 MiB
Writing library : XviD 1.1.2 (UTC 2006-11-01)

Audio
Format : AC-3
Format/Info : Audio Coding 3
Format profile : Dolby Digital
Codec ID : 2000
Duration : 1h 46mn
Bit rate mode : Constant
Bit rate : 192 Kbps
Channel(s) : 2 channels
Channel positions : L R
Sampling rate : 48.0 KHz
Stream size : 147 MiB
Language : English

*******************************************************************************
Screenshots
*******************************************************************************

The Changeling DVDRipKooKoo preview 0
The Changeling DVDRipKooKoo preview 1
The Changeling DVDRipKooKoo preview 2


*******************************************************************************
DVDCover
*******************************************************************************

The Changeling DVDRipKooKoo preview 3

------------------------------------------------------------------------------

Enjoy and keep this alive. The more you seed the quicker I can share my stuff with you.
~KooKoo

You can find me at h33t.com and DarksideRg

related torrents

Torrent name

health leech seeds Size

The Changeling DVDSCR

2 2 1.39 GB 0
 


comments (0)

Main Menu