Drama

Quadrophenia 1979 DVDRIP ZEKTORM

  • Download 5x Faster
  • Download torrent
  • Direct Download
  • Rate this torrent +  |  -
Quadrophenia 1979 DVDRIP ZEKTORM

Free and Direct Download with Usenet.nl 300GB+ free


Torrent info

Name:Quadrophenia 1979 DVDRIP ZEKTORM

Total Size: 706.97 MB

Magnet: Magnet Link

Seeds: 41

Leechers: 10

Stream: Watch Online @ Movie4u

Last Updated: 0000-00-00 00:00:00 (Update Now)

Torrent added: 2009-09-02 14:40:11





Torrent Files List


Quadrophenia.1979.DVDRIP-ZEKTORM.mp4 (Size: 706.97 MB) (Files: 4)

 Quadrophenia.1979.DVDRIP-ZEKTORM.mp4

700.15 MB

 READ.hlp

12.61 KB

 Subs

  Quadrophenia.1979.DVDRIP-ZEKTORM.idx

134.03 KB

  Quadrophenia.1979.DVDRIP-ZEKTORM.sub

6.68 MB
 

Announce URL: http://tracker.torrentbox.com:2710/announce

Torrent description

Title : Quadrophenia
Year : 1979
Genre : Crime | Drama | Music
iMDB Rate : User Rating: 7.0/10 4,711 votes
iMDB URL : http://www.imdb.com/title/tt0079766/

Complete name : Quadrophenia.1979.DVDRIP-ZEKTORM.mp4
Format : MPEG-4
Format profile : Base Media
Codec ID : isom
File size : 700 MiB
Duration : 2h 2mn
Overall bit rate : 800 Kbps
Subtitles : English, Spanish (Format: VobSub)
Source : DVD PAL
Encoded date : UTC 2009-01-23 20:07:48

Video
Format : AVC
Format/Info : Advanced Video Codec
Format profile : [email protected]
Format settings, CABAC : Yes
Format settings, ReFrames : 10 frames
Codec ID : avc1
Codec ID/Info : Advanced Video Coding
Duration : 2h 2mn
Bit rate mode : Variable
Bit rate : 706 Kbps
Maximum bit rate : 4072 Kbps
Width : 688 pixels
Height : 576 pixels
Display aspect ratio : 4/3
Frame rate mode : Constant
Frame rate : 25.000 fps
Resolution : 24 bits
Colorimetry : 4:2:0
Scan type : Progressive
Bits/(Pixel*Frame) : 0.071
Stream size : 618 MiB (88%)
Title : Video
Writing library : x264 core 60 r900 a9af942

Audio
Format : AAC
Format/Info : Advanced Audio Codec
Format version : Version 4
Format profile : LC
Format settings, SBR : Yes
Format settings, PS : No
Codec ID : 40
Duration : 2h 2mn
Bit rate mode : Variable
Bit rate : 91.3 Kbps
Maximum bit rate : 110 Kbps
Channel(s) : 2 channels
Channel positions : L R
Sampling rate : 48.0 KHz
Resolution : 16 bits
Stream size : 79.9 MiB (11%)
Title : English
Language : English

Notes : Convert to DVD with Nero

related torrents

Torrent name

health leech seeds Size
 

comments (0)

Main Menu