Drama

Primal Fear (1996) Quality proved!

  • Download 5x Faster
  • Download torrent
  • Direct Download
  • Rate this torrent +  |  -
Primal Fear (1996) Quality proved!

Anonymous and free Direct Download 300GB+


Torrent info

Name:Primal Fear (1996) Quality proved!

Total Size: 693.40 MB

Magnet: Magnet Link

Seeds: 0

Leechers: 0

Stream: Watch Online @ Movie4u

Last Updated: 0000-00-00 00:00:00 (Update Now)

Torrent added: 2009-09-02 14:25:56



VPN For Torrents

Torrent Files List


Notes on subtitle files.txt (Size: 693.40 MB) (Files: 3)

 Notes on subtitle files.txt

1.68 KB

 Primal_Fear_1996.avi

692.27 MB

 Primal_Fear_1996_subtitles.rar

1.13 MB
 

Announce URL:

Torrent description

Primal Fear (1996)
Optional Swedish subtitles in separate idx/sub files.

Amazing acting by Edward Norton (then 26) as the split-personality altar boy who allegedly has butchered his beloved bishop. Norton was deservedly given an Oscar-nomination for this part in one of his first films; years before he made 'American History X' and 'Fight Club'.

DVDrip, widescreen, XviD 2-pass 704x384, good stereo sound, AC3.
Burn tested, runs well in my DivX player.

My new ripping procedure now gives good quality for a 2 hour film in just 700 MiB.

Format/Info : Audio Video Interleave
File size : 692 MiB
Duration : 2h 5mn
Overal bit rate : 774 Kbps

Video
Format : MPEG-4 Visual
Format profile : Streaming [email protected]
Format settings, BVOP : Yes
Format settings, QPel : No
Format settings, GMC : No warppoints
Format settings, Matrix : Default
Muxing mode : Packet Bitstream
Codec ID : XVID
Codec ID/Hint : XviD
Duration : 2h 5mn
Bit rate : 636 Kbps
Width : 704 pixels
Height : 384 pixels
Display aspect ratio : 16/9
Frame rate : 25.000 fps
Resolution : 8 bits
Colorimetry : 4:2:0
Scan type : Progressive
Bits/(Pixel*Frame) : 0.094
Stream size : 569 MiB
Writing library : XviD 1.2.0.dev47 (UTC 2006-11-01)

Audio
Format : MPEG Audio
Format version : Version 1
Format profile : Layer 3
Codec ID : 55
Codec ID/Hint : MP3
Duration : 2h 5mn
Bit rate mode : Constant
Bit rate : 128 Kbps
Minimum bit rate : 128 Kbps
Channel(s) : 2 channels
Sampling rate : 48.0 KHz
Resolution : 16 bits
Stream size : 115 MiB
Writing library : LAME3.97
Encoding settings : CBR

Source: PAL DVD Retail 7.5 GiB

related torrents

Torrent name

health leech seeds Size
 


comments (0)

Main Menu