Drama

Poor Boys Game DVDRiP XViD SB0[ BOX]

  • Download 5x Faster
  • Download torrent
  • Direct Download
  • Rate this torrent +  |  -
Poor Boys Game DVDRiP XViD SB0[ BOX]

Free and Direct Download with Usenet 300GB+ free


Torrent info

Name:Poor Boys Game DVDRiP XViD SB0[ BOX]

Total Size: 699.86 MB

Magnet: Magnet Link

Seeds: 0

Leechers: 0

Stream: Watch Online @ Movie4u

Last Updated: 2010-07-27 09:22:11 (Update Now)

Torrent added: 2009-09-02 14:13:54




Torrent Files List


Poor Boys Game DVDRiP XViD SB0.nfo (Size: 699.86 MB) (Files: 2)

 Poor Boys Game DVDRiP XViD SB0.nfo

4.97 KB

 Poor Boys Game DVDRiP XViD SB0.avi

699.85 MB
 

Announce URL: http://www.twilighttorrents.net/announce.php?passkey=08908368149870e44ba3a2bedc2b5a16

Torrent description

Poor Boys Game DVDRiP XViD SB0
*******************************************************************************

-------------------------------------------------------------------------------
General Information
-------------------------------------------------------------------------------
Type.................: Movie



Movie Information....: http://www.imdb.com/title/tt0816616/

-------------------------------------------------------------------------------
Post Information
-------------------------------------------------------------------------------
Posted by............: SB0

-------------------------------------------------------------------------------
Release Notes
-------------------------------------------------------------------------------
General
Complete name : Poor Boys Game DVDRiP XViD SB0.avi
Format : AVI
Format/Info : Audio Video Interleave
File size : 700 MiB
Duration : 1h 40mn
Overall bit rate : 975 Kbps
Writing application : VirtualDubMod 1.5.4.1 (build 2178/release)
Writing library : VirtualDubMod build 2178/release

Video
Format : MPEG-4 Visual
Format profile : Streaming [email protected]
Format settings, BVOP : Yes
Format settings, QPel : No
Format settings, GMC : No warppoints
Format settings, Matrix : Custom
Codec ID : XVID
Codec ID/Hint : XviD
Duration : 1h 40mn
Bit rate : 861 Kbps
Width : 560 pixels
Height : 320 pixels
Display aspect ratio : 16/9
Frame rate : 25.000 fps
Resolution : 24 bits
Colorimetry : 4:2:0
Scan type : Progressive
Bits/(Pixel*Frame) : 0.192
Stream size : 618 MiB (88%)
Writing library : XviD 1.1.0 (UTC 2005-11-22)

Audio
Format : MPEG Audio
Format version : Version 1
Format profile : Layer 3
Codec ID : 55
Codec ID/Hint : MP3
Duration : 1h 40mn
Bit rate mode : Variable
Bit rate : 101 Kbps
Nominal bit rate : 112 Kbps
Channel(s) : 2 channels
Sampling rate : 44.1 KHz
Resolution : 16 bits
Stream size : 72.7 MiB (10%)
Alignment : Aligned on interleaves
Interleave, duration : 26 ms (0.65 video frame)
Interleave, preload duration : 564 ms
Writing library : LAME3.97
Encoding settings : -m j -V 4 -q 2 -lowpass 15.6 --abr 112

Donnie Rose went to prison for beating a young man so brutally it left him
handicapped for life. Nine years later, Donnie is out. He's a different man with
only one place to go: back home to the same violent and racist neighborhood that
created him. At the other end of town, the black community still wants revenge.
The instrument of justice will be Ossie Paris, a devastatingly talented boxer
who challenges Donnie to a match; a match Donnie's family and peers won't let
him refuse. George Carvery has waited nine years to avenge his son's fate at the
hands of Donnie. When finally they meet face to face, however, both realize they
share a similar desire to overcome the past. As the barely contained racism
boils to the surface, George and Donnie form a seemingly unlikely alliance.
Their partnership makes them outcasts from both tribes, who will only be
satisfied by blood in the ring. The two men get to know each other in the eye of
a storm, knowing full well that their futures will be decided with the bell of
the first round.

related torrents

Torrent name

health leech seeds Size
 

comments (0)

Main Menu