Drama

Pater familias,[Divx Ita MP3][ scambioetico org]

  • Download 5x Faster
  • Download torrent
  • Direct Download
  • Rate this torrent +  |  -
Pater familias,[Divx Ita MP3][ scambioetico org]

Free and Direct Download with Usenet 300GB+ free


Torrent info

Name:Pater familias,[Divx Ita MP3][ scambioetico org]

Total Size: 691.07 MB

Magnet: Magnet Link

Seeds: 1

Leechers: 2

Stream: Watch Online @ Movie4u

Last Updated: 2010-11-23 17:28:40 (Update Now)

Torrent added: 2009-09-02 13:42:19




Torrent Files List


Pater Familias.avi (Size: 691.07 MB) (Files: 1)

 Pater Familias.avi

691.07 MB
 

Announce URL: http://tracker.tntvillage.scambioetico.org:2710/announce

Torrent description

Pater familias,[Divx - Ita MP3][www.tntvillage.scambioetico.org]

Scheda del film

Titolo:Pater familias
Titolo originale:Pater familias
Nazionalità:Italia
Anno:2003
Genere:Drammatico
Regia:Francesco Patierno
Produzione:Umberto Massa per Kubla Khan
Distribuzione:Istituto Luce
Data di uscita:14 marzo 2003 (cinema)


Cast

Luigi Iacuzio, Federica Bonovolontà


Scheda tecnica del DivX

General
Complete name : Pater Familias.avi
Format : AVI
Format/Info : Audio Video Interleave
File size : 691 MiB
Duration : 1h 29mn
Overall bit rate : 1 078 Kbps

Video
Format : MPEG-4 Visual
Format settings, BVOP : No
Format settings, QPel : No
Format settings, GMC : No warppoints
Format settings, Matrix : Default
Codec ID : DX50
Codec ID/Hint : DivX 5
Duration : 1h 29mn
Bit rate : 937 Kbps
Width : 720 pixels
Height : 368 pixels
Display aspect ratio : 1.957
Frame rate : 25.000 fps
Resolution : 24 bits
Colorimetry : 4:2:0
Scan type : Progressive
Bits/(Pixel*Frame) : 0.142
Stream size : 601 MiB (87%)
Title : DVD2VIDEO
Writing library : DivX 5.2.0 (UTC 2004-07-15)

Audio
Format : MPEG Audio
Format version : Version 1
Format profile : Layer 3
Codec ID : 55
Codec ID/Hint : MP3
Bit rate mode : Constant
Bit rate : 128 Kbps
Channel(s) : 2 channels
Sampling rate : 48.0 KHz
Resolution : 16 bits
Stream size : 82.0 MiB (12%)
Alignment : Split accross interleaves
Interleave, duration : 24 ms (0.60 video frame)
Interleave, preload duration : 67 ms
Title : DVD2AUDIO00




related torrents

Torrent name

health leech seeds Size
 

comments (0)

Main Menu