Comedy

Postal (2007) DvdRip 1337x By {Noir}

  • Download 5x Faster
  • Download torrent
  • Direct Download
  • Rate this torrent +  |  -
Postal (2007) DvdRip 1337x By {Noir}

Anonymous and Free Direct Download


Torrent info

Name:Postal (2007) DvdRip 1337x By {Noir}

Total Size: 729.61 MB

Magnet: Magnet Link

Seeds: 7

Leechers: 8

Stream: Watch Online @ Movie4u

Last Updated: 2010-11-29 00:05:50 (Update Now)

Torrent added: 2008-08-22 02:59:27



VPN For Torrents

Torrent Files List


1337x.Org.txt (Size: 729.61 MB) (Files: 3)

 1337x.Org.txt

0.03 KB

 Noir.nfo

5.55 KB

 Postal (2007) [DvdRip] [1337x] By {Noir}.avi

729.61 MB
 

Announce URL: http://genesis.1337x.org:1337/announce

Torrent description

Postal (2007) DvdRip 1337x By {Noir} preview 0

Screenshots

Postal (2007) DvdRip 1337x By {Noir} preview 1

Postal (2007) DvdRip 1337x By {Noir} preview 2

Postal (2007) DvdRip 1337x By {Noir} preview 3

Postal (2007) DvdRip 1337x By {Noir} preview 4
[code]
______________________________________________________________
▓▓▓▓▓▓ |
▓█████▓ ▓▓▓▓ |
▓██████▓ ▓▓███▓ |
▓▓██████▓ ▓████▓▓▓▓▓▓ |
██████▓ ▓██▒█▓▓███▓▓ ▓▓▓▓▓▓▓▓▓▓▓▓▓ |
▓██▒████▓ ▓██▒█▓██████▓▓███▓███▓███▓▓ |
▓██▒▒████▓ ▓██▒███▒▒▒▒██▓████████████▓ |
▓██▒▒▒▒███▓ ▓██▒██▒▒▒▒▒▒███▒▒▒██▒█▒▒▒██▓▓ |
▓██▒▒██▒▒██▓▓██▒██▒▒█▒▒▒▒███████▒▒▒▒▒▒██▓ |
▓██▒▒███▒▒██▓██▒██▒█▓█▒▒▒██▒▒▒██▒▒██▒▒▒█▓ |
▓██▒▒████▒▒████▒██▒█▓█▒▒▒██▒▒▒██▒▒███▒██▓ |
▓██▒▒█▓███▒▒███▒██▒▒█▒▒▒▒██▒▒▒██▒▒██████▓ |
▓██▒▒█▓▓███▒▒██▒██▒▒▒▒▒▒▒██▒▒▒██▒▒██▓███▓ |
▓▓██▒▒█▓ ▓███▒▒█▒██▒▒▒▒▒▒▒███████▒▒██▓▓▓▓▓ |
▓▓███▒▒█▓ ▓███▒▒▒███▒▒▒▒▒██▓▓▓▓██▒▒██▓ |
▓████▒▒█▓ ▓███▒▒█████████▓▓ ▓██▒▒██▓ |
▓████▒▒█▓ ▓███▒█▓██████▓▓▓ ▓██████▓ |
▓███████▓ ▓▓████▓▓▓▓▓▓▓▓ ▓▓▓▓▓▓▓▓ |
▓▓▓▓▓▓▓▓▓ ▓▓▓▓▓ |
______________________________________________________________|



*****************
* Postal (2007) *
*****************

________________________
General Information |
________________________|
_______________________________________________________________
Type : Movie |
Format : AVI |
Format/Info : Audio Video Interleave |
File size : 730 MiB |
Duration : 1h 40mn |
Subtitles : |
Source : Dvd NTSC |
Genre : Action | Comedy | Horror | Thriller |
IMDB Link : http://www.imdb.com/title/tt0486640/ |
Rating : 3.6/10 |
_______________________________________________________________|
Video
Format : AVC
Format/Info : Advanced Video Codec
Format profile : [email protected]
Format settings, CABAC : Yes
Format settings, ReFrames : 2 frames
Codec ID : H264
Duration : 1h 40mn
Bit rate : 879 Kbps
Width : 608 pixels
Height : 336 pixels
Display aspect ratio : 16/9
Frame rate : 23.976 fps
Resolution : 24 bits
Colorimetry : 4:2:0
Scan type : Progressive
Bits/(Pixel*Frame) : 0.179
Stream size : 631 MiB (86%)
_______________________________________________________________
Audio
Format : MPEG Audio
Format version : Version 1
Format profile : Layer 3
Codec ID : 55
Codec ID/Hint : MP3
Duration : 1h 40mn
Bit rate mode : Constant
Bit rate : 128 Kbps
Minimum bit rate : 128 Kbps
Channel(s) : 2 channels
Sampling rate : 48.0 KHz
Resolution : 16 bits
Stream size : 91.9 MiB (13%)
Alignment : Aligned on interleaves
Interleave, duration : 42 ms (1.00 video frame)
Interleave, preload duration : 504 ms
Writing library : LAME3.97
Encoding settings : CBR
_______________________________________________________________
________________
Description |
________________|
_______________________________________________________________
The story begins with a regular Joe who tries desperately to |
seek employment, but embarks on a violent rampage when he teams|
up with cult leader Uncle Dave. Their first act is to heist an |
amusement park, only to learn that the Taliban are planning the|
same heist as well. Chaos ensues, and now the Postal Dude must |
not only take on terrorists but political figures as well. | |
_______________________________________________________________|
____________________
Playback Information|
____________________|
_______________________________________________________________
For best playback with my movie you will need an h.264/x264 |
Decoder.My personal favorite is CoreAvc Professional. |
http://www.coreavc.com/ . You can download it with serial |
and application from My site here. |
http://noirsstuff.googlepages.com/home |
You can also use ffdshow for playback as well,VLC media Player,|
And media player classic. |
_______________________________________________________________|
___________________
Post Information |
___________________|
________________________________
Posted by............: Noir |
Posted on............: 8/22/2008|
________________________________|
[/code]
Postal (2007) DvdRip 1337x By {Noir} preview 5

Postal (2007) DvdRip 1337x By {Noir} preview 6

related torrents

Torrent name

health leech seeds Size
 


comments (0)

Main Menu