Drama

One Flew Over The Cuckoos Nest 1975 DVDrip nutEdave avi

  • Download 5x Faster
  • Download torrent
  • Direct Download
  • Rate this torrent +  |  -


Torrent info

Name:One Flew Over The Cuckoos Nest 1975 DVDrip nutEdave avi

Total Size: 1.36 GB

Magnet: Magnet Link

Seeds: 0

Leechers: 0

Stream: Watch Online @ Movie4u

Last Updated: 2010-09-04 04:15:20 (Update Now)

Torrent added: 2009-09-02 13:02:07



VPN For Torrents

Torrent Files List


One Flew Over The Cuckoos Nest - 1975 DVDrip nutEdave.avi (Size: 1.36 GB) (Files: 1)

 One Flew Over The Cuckoos Nest - 1975 DVDrip nutEdave.avi

1.36 GB
 

Announce URL: http://open.tracker.thepiratebay.org/announce

Torrent description

One Flew Over the Cuckoo's Nest is an American 1975 drama film directed by Miloš Forman. The film is an adaptation of the 1962 novel One Flew Over the Cuckoo's Nest by Ken Kesey. The movie was the first to win all five major Academy Awards (Best Picture, Actor in Lead Role, Actress in Lead Role, Director, Screenplay) since It Happened One Night in 1934, an accomplishment not repeated until 1991, by The Silence of the Lambs.
There had been an earlier stage version of the book, in 1963, but the film does not use the script of the stage version.
The movie was filmed at Oregon State Hospital in Salem, Oregon, which was the setting of the novel.
Jack Nicholson ................... Randle Patrick McMurphy
Louise Fletcher .................. Nurse Mildred "Big Nurse" Ratched
William Redfield ................. Dale Harding
Brad Dourif ...................... Billy Bibbit
Sydney Lassick ................... Charlie Cheswick
Will Sampson ..................... Chief Bromden
Danny DeVito ..................... Martini
Christopher Lloyd ................ Max Taber
Dean R. Brooks ................... Dr. John Spivey
William Duell .................... Jim Sefelt
Vincent Schiavelli ............... Frederickson
Nathan George .................... Attendant Washington
Scatman Crothers ................. Orderly Turkle
Louisa Moritz .................... Rose ` General
Complete name : One Flew Over The Cuckoo's Nest - 1975
Format : AVI
Format/Info : Audio Video Interleave
File size : 1.36 GiB
Duration : 2h 8mn
Overall bit rate : 1 520 Kbps

Video
Format : MPEG-4 Visual
Format profile : Streaming [email protected]
Format settings, BVOP : Yes
Format settings, QPel : No
Format settings, GMC : No warppoints
Format settings, Matrix : Default
Muxing mode : Packed bitstream
Codec ID : XVID
Codec ID/Hint : XviD
Duration : 2h 8mn
Bit rate : 1 316 Kbps
Width : 1 024 pixels
Height : 582 pixels
Display aspect ratio : 16/9
Frame rate : 29.970 fps
Resolution : 24 bits
Colorimetry : 4:2:0
Scan type : Progressive
Bits/(Pixel*Frame) : 0.074
Stream size : 1.18 GiB (87%)
Writing library : XviD 1.2.1 (UTC 2008-12-04)

Audio
Format : MPEG Audio
Format version : Version 1
Format profile : Layer 3
Codec ID : 55
Codec ID/Hint : MP3
Duration : 2h 8mn
Bit rate mode : Constant
Bit rate : 192 Kbps
Channel(s) : 2 channels
Sampling rate : 44.1 KHz
Resolution : 16 bits
Video delay : 26ms
Stream size : 176 MiB (13%)
Alignment : Split accross interleaves
Interleave, duration : 33 ms (1.00 video frame)
Title : Audio Stream
Writing library : LAME3.92 Please seed after downloading

related torrents

Torrent name

health leech seeds Size
 


comments (0)

Main Menu