Jazz

(JazzPlanet) Michael Brecker Pilgrimage [Eac Flac Cue] UF SPG

  • Download 5x Faster
  • Download torrent
  • Direct Download
  • Rate this torrent +  |  -
(JazzPlanet) Michael Brecker Pilgrimage [Eac Flac Cue] UF SPG

Anonymous and Free Direct Download 300GB+


Torrent info

Name:(JazzPlanet) Michael Brecker Pilgrimage [Eac Flac Cue] UF SPG

Total Size: 499.09 MB

Magnet: Magnet Link

Seeds: 0

Leechers: 0

Stream: Watch Online @ Movie4u

Last Updated: 2015-12-12 11:50:48 (Update Now)

Torrent added: 2009-09-02 12:36:44



VPN For Torrents

Torrent Files List


scans (Size: 499.09 MB) (Files: 12)

 scans

  cd .png

2.64 MB

  Front.jpg

2.95 MB

  inside 0.jpg

2.55 MB

  inside 1.jpg

2.58 MB

  inside 2.jpg

2.53 MB

  inside 3.jpg

2.59 MB

  inside 4.jpg

2.65 MB

  inside 5.jpg

4.99 MB

  rear.png

7.23 MB

 Michael Brecker - k-Pilgrimage.cue

1.27 KB

 Michael Brecker - k-Pilgrimage.flac

468.37 MB

 Michael Brecker - k-Pilgrimage.log

2.66 KB
 

tracker

leech seeds
 

Torrent description

Michael Brecker - Pilgrimage

Titolo: Pilgrimage
Artista / Gruppo: Michael Brecker
Genere: Jazz
Registrazione: Studio
Casa discografica: Wa records
Anno di uscita: 2007
Fonte: CD originale
Formato: Flac 1.2.1b - 6
Covers: incluse
Dimensioni: 499 Mb

Tracklist

1. The Mean Time
2. Five Mounth From Midnight
3. Anangram
4. Tumbleweed
5. When Can I Kiss You Again?
6. Cardinal Rule
7. Half Moon Lane
8. Loose Threads
9. Pilgrimage

Personnell

Michael Brecker - Tenor Saxophones
Herbie Hancock - Piano
Brad Mehldau - Piano
John Patitucci - Basso
Jack DeJohnette - Batteria

EAC log

Exact Audio Copy V0.99 prebeta 3 from 28. July 2007

EAC extraction logfile from 31. August 2009, 23:48

Michael Brecker / k-Pilgrimage

Used drive : ASUS DRW-2014L1T Adapter: 1 ID: 1

Read mode : Secure
Utilize accurate stream : Yes
Defeat audio cache : Yes
Make use of C2 pointers : No

Read offset correction : 6
Overread into Lead-In and Lead-Out : No
Fill up missing offset samples with silence : Yes
Delete leading and trailing silent blocks : No
Null samples used in CRC calculations : Yes
Used interface : Installed external ASPI interface

Used output format : User Defined Encoder
Selected bitrate : 1024 kBit/s
Quality : High
Add ID3 tag : No
Command line compressor : C:\Program Files\Exact Audio Copy\FLAC\FLAC.EXE
Additional command line options : -8 -V -T "ARTIST=%a" -T "TITLE=%t" -T "ALBUM=%g" -T "DATE=%y" -T "TRACKNUMBER=%n" -T "GENRE=%m" -T "COMMENT=%e" %s -o %d


TOC of the extracted CD

Track | Start | Length | Start sector | End sector
---------------------------------------------------------
1 | 0:00.00 | 6:57.03 | 0 | 31277
2 | 6:57.03 | 7:41.20 | 31278 | 65872
3 | 14:38.23 | 10:11.10 | 65873 | 111707
4 | 24:49.33 | 9:39.21 | 111708 | 155153
5 | 34:28.54 | 9:45.58 | 155154 | 199086
6 | 44:14.37 | 7:33.71 | 199087 | 233132
7 | 51:48.33 | 7:18.65 | 233133 | 266047
8 | 59:07.23 | 8:36.55 | 266048 | 304802
9 | 67:44.03 | 10:02.52 | 304803 | 350004


Range status and errors

Selected range

Filename M:\da rellare\(JazzPlanet) Michael Brecker - Pilgrimage [Eac-Flac-Cue] UF SPG\Michael Brecker - k-Pilgrimage.wav

Peak level 99.8 %
Range quality 100.0 %
Test CRC 9C8574CE
Copy CRC 9C8574CE
Copy OK

No errors occurred


AccurateRip summary

Track 1 accurately ripped (confidence 34) [63B75007]
Track 2 accurately ripped (confidence 37) [06584350]
Track 3 accurately ripped (confidence 33) [6CD910C3]
Track 4 accurately ripped (confidence 37) [55FB5D4D]
Track 5 accurately ripped (confidence 36) [EF6450D6]
Track 6 accurately ripped (confidence 37) [B4AE2FBB]
Track 7 accurately ripped (confidence 37) [A6A600DB]
Track 8 accurately ripped (confidence 37) [AF1C426F]
Track 9 accurately ripped (confidence 36) [E8F9664D]

All tracks accurately ripped

End of status report

Bandwith

500 Kb/s 24/7

related torrents

Torrent name

health leech seeds Size
 


comments (0)

Main Menu