Drama

Not Easily Broken 2009 BRRip XviD AC3 PHOENiX torrent [ceasers palace info]

  • Download 5x Faster
  • Download torrent
  • Direct Download
  • Rate this torrent +  |  -
Not Easily Broken 2009 BRRip XviD AC3 PHOENiX torrent [ceasers palace info]

Free and Direct Download with Usenet 300GB+ free


Torrent info

Name:Not Easily Broken 2009 BRRip XviD AC3 PHOENiX torrent [ceasers palace info]

Total Size: 1.45 GB

Magnet: Magnet Link

Seeds: 0

Leechers: 0

Stream: Watch Online @ Movie4u

Last Updated: 2010-09-15 19:28:45 (Update Now)

Torrent added: 2009-09-02 12:35:38




Torrent Files List


Not.Easily.Broken.2009.BRRip.XviD.AC3-PHOENiX.avi (Size: 1.45 GB) (Files: 2)

 Not.Easily.Broken.2009.BRRip.XviD.AC3-PHOENiX.avi

1.45 GB

 Not.Easily.Broken.2009.BRRip.XviD.AC3-PHOENiX.nfo

2.04 KB
 

Announce URL: http://ceasers-palace.info/announce.php?passkey=18436d8108a35142dc150cae9a067c96

Torrent description

Format : AVI
Format/Info : Audio Video Interleave
Format profile : OpenDML
File size : 1.45 GiB
Duration : 1h 39mn
Overall bit rate : 2 083 Kbps
Writing application : AVI-Mux GUI 1.17.7, Aug 8 2006 20:59:17

Video
ID : 0
Format : MPEG-4 Visual
Format profile : Streaming Video@L1
Format settings, BVOP : Yes
Format settings, QPel : No
Format settings, GMC : No warppoints
Format settings, Matrix : Default (MPEG)
Codec ID : XVID
Codec ID/Hint : XviD
Duration : 1h 39mn
Bit rate : 1 630 Kbps
Width : 720 pixels
Height : 384 pixels
Display aspect ratio : 1.875
Frame rate : 23.976 fps
Resolution : 24 bits
Colorimetry : 4:2:0
Scan type : Progressive
Bits/(Pixel*Frame) : 0.246
Stream size : 1.13 GiB (78%)
Writing library : XviD 1.2.1 (UTC 2008-12-04)

Audio
ID : 1
Format : AC-3
Format/Info : Audio Coding 3
Codec ID : 2000
Duration : 1h 39mn
Bit rate mode : Constant
Bit rate : 448 Kbps
Channel(s) : 6 channels
Channel positions : Front: L C R, Surround: L R, LFE
Sampling rate : 48.0 KHz
Stream size : 319 MiB (22%)
Alignment : Aligned on interleaves
Interleave, duration : 64 ms (1.53 video frames)
Interleave, preload duration : 192 ms
Title : Not.Easily.Broken.2009.BluRay

related torrents

Torrent name

health leech seeds Size
 

comments (0)

Main Menu