Drama

Nil By Mouth (1997) DVDRip (AC 3, 5 1)

  • Download 5x Faster
  • Download torrent
  • Direct Download
  • Rate this torrent +  |  -
Nil By Mouth (1997) DVDRip (AC 3, 5 1)

Download FREE And Anonymously


Torrent info

Name:Nil By Mouth (1997) DVDRip (AC 3, 5 1)

Total Size: 1.15 GB

Magnet: Magnet Link

Seeds: 0

Leechers: 0

Stream: Watch Full Movie @ Movie4u

Last Updated: 2016-11-23 14:27:10 (Update Now)

Torrent added: 2009-09-02 12:19:18



VPN For Torrents

Torrent Files List


Nil By Mouth (1997) - [akhiugo].avi (Size: 1.15 GB) (Files: 3)

 Nil By Mouth (1997) - [akhiugo].avi

1.14 GB

 Nil By Mouth (1997) - [akhiugo].nfo

1.99 KB

 thumbs20090303112649.bmp

2.78 MB
 

tracker

leech seeds
 

Torrent description

Nil By Mouth is a raw, unflinching look at a dysfunctional family as it copes with alcoholism, drug abuse, petty crime and domestic violence in South East London.

Gary Oldman's brilliantly written screenplay and stunning direction perfectly capture the solidarity, resilience and humour that makes survival possible.



IMDB Rating 7.3/10 (2,965 Votes)


------------------------------------------------------------------------------

General
Complete name : Nil By Mouth (1997) - [akhiugo].avi
Format : AVI
Format/Info : Audio Video Interleave
File size : 1.14 GiB
Duration : 2h 3mn
Overall bit rate : 1 326 Kbps
Writing application : VirtualDubMod 1.5.4.1 (build 2178/release)
Writing library : VirtualDubMod build 2178/release

Video
Format : MPEG-4 Visual
Format profile : Streaming [email protected]
Format settings, BVOP : Yes
Format settings, QPel : No
Format settings, GMC : No warppoints
Format settings, Matrix : Custom
Codec ID : XVID
Codec ID/Hint : XviD
Duration : 2h 3mn
Bit rate : 872 Kbps
Width : 672 pixels
Height : 384 pixels
Display aspect ratio : 16/9
Frame rate : 25.000 fps
Resolution : 24 bits
Colorimetry : 4:2:0
Scan type : Progressive
Bits/(Pixel*Frame) : 0.135
Stream size : 769 MiB (66%)
Writing library : XviD 1.2.1 (UTC 2008-12-04)

Audio
Format : AC-3
Format/Info : Audio Coding 3
Codec ID : 2000
Duration : 2h 3mn
Bit rate mode : Constant
Bit rate : 448 Kbps
Channel(s) : 6 channels
Channel positions : Front: L C R, Surround: L R, LFE
Sampling rate : 48.0 KHz
Stream size : 395 MiB (34%)
Alignment : Aligned on interleaves
Interleave, duration : 96 ms (2.40 video frames)
Interleave, preload duration : 96 ms

---------------------------------------------------------------------------------


Thumbnailed screens



Please help your fellow pirates by seeding after download!

related torrents

Torrent name

health leech seeds Size
 


comments (0)

Main Menu

 

script data-cfasync="false" src="//d2ghscazvn398x.cloudfront.net/?cshgd=690275">