Drama

Netforce (1999) DVDrip Nl Subs Nlt Release By Zero Yuy

  • Download 5x Faster
  • Download torrent
  • Direct Download
  • Rate this torrent +  |  -
Netforce (1999) DVDrip Nl Subs Nlt Release By Zero Yuy

Free and Direct Download with Usenet 300GB+ free


Torrent info

Name:Netforce (1999) DVDrip Nl Subs Nlt Release By Zero Yuy

Total Size: 1.47 GB

Magnet: Magnet Link

Seeds: 1

Leechers: 6

Stream: Watch Online @ Movie4u

Last Updated: 2010-10-08 03:36:36 (Update Now)

Torrent added: 2009-09-02 12:11:06




Torrent Files List


Cover.jpg (Size: 1.47 GB) (Files: 5)

 Cover.jpg

16.78 KB

 Important! Torrent Created by Zero Yuy.txt

0.35 KB

 Netforce.avi

1.47 GB

 Torrent_downloaded_from_Demonoid.com.txt

0.05 KB

 Video File Info.txt

1.96 KB
 

Announce URL: http://tracker.openbittorrent.com/announce

Torrent description

http://www.moviemeter.nl/film/32210/info/0#3

Verenigde Staten
Drama / Science-Fiction
200 minuten

geregisseerd door Robert Lieberman
met Scott Bakula, Joanna Going en Xander Berkeley

Informatie betekent macht! Vanuit deze gedachte barst in het jaar 2005 de strijd om de absolute heerschappij over het internet in alle hevigheid los Alex Michaels is de topman van Netforce, een speciale FBI-eenheid die het internet beschermt tegen de misdaad. Michaels heeft de plaats ingenomen van zijn chef en beste vriend die vermoord is door één van de strijdende partijen. Als top-secret informatie in handen dreigt te vallen van de mafia en neo-nazi's, weet Michaels dat zijn team voor een onmogelijke opgave staat. Met de moed der wanhoop zet hij alle wapens in elektronische en fysiek- die er te vinden zijn. Naar een boek van Tom Clancy.

Video File Info:

General
Format : AVI
Format/Info : Audio Video Interleave
File size : 1.47 GiB
Duration : 2h 33mn
Overall bit rate : 1 366 Kbps
Writing application : VirtualDubMod 1.5.4.1 (build 2178/release)
Writing library : VirtualDubMod build 2178/release

Video
Format : MPEG-4 Visual
Format profile : Streaming [email protected]
Format settings, BVOP : Yes
Format settings, QPel : No
Format settings, GMC : No warppoints
Format settings, Matrix : Custom
Codec ID : XVID
Codec ID/Hint : XviD
Duration : 2h 33mn
Bit rate : 1 167 Kbps
Width : 528 pixels
Height : 416 pixels
Display aspect ratio : 5/4
Frame rate : 25.000 fps
Resolution : 24 bits
Colorimetry : 4:2:0
Scan type : Progressive
Bits/(Pixel*Frame) : 0.212
Stream size : 1.25 GiB (85%)
Writing library : XviD 1.2.1 (UTC 2008-12-04)

Audio
Format : AC-3
Format/Info : Audio Coding 3
Codec ID : 2000
Duration : 2h 33mn
Bit rate mode : Constant
Bit rate : 192 Kbps
Channel(s) : 2 channels
Channel positions : L R
Sampling rate : 48.0 KHz
Stream size : 211 MiB (14%)
Alignment : Aligned on interleaves
Interleave, duration : 96 ms (2.40 video frames)
Interleave, preload duration : 96 ms
Language : English
Subtitles : Dutch

Brought to you by Nlt Release @

http://nlt.ons-forum.nl

related torrents

Torrent name

health leech seeds Size
 

comments (0)

Main Menu