Drama

Naked [1993] DVDrip [Gopo]

  • Download 5x Faster
  • Download torrent
  • Direct Download
  • Rate this torrent +  |  -
Naked [1993] DVDrip [Gopo]

Anonymous and Direct Download 300GB+ free


Torrent info

Name:Naked [1993] DVDrip [Gopo]

Total Size: 700.98 MB

Magnet: Magnet Link

Seeds: 0

Leechers: 0

Stream: Watch Online @ Movie4u

Last Updated: 0000-00-00 00:00:00 (Update Now)

Torrent added: 2009-09-02 12:05:34




Torrent Files List


Naked.[1993].DVDrip.[Gopo].avi (Size: 700.98 MB) (Files: 4)

 Naked.[1993].DVDrip.[Gopo].avi

700.85 MB

 Naked.[1993].DVDrip.[Gopo].srt

129.40 KB

 Naked.[1993].DVDrip.[Gopo].nfo

1.72 KB

 Torrent downloaded from Demonoid.com.txt

0.05 KB
 

Announce URL:

Torrent description

D:\Naked.[1993].DVDrip.[Gopo]\Naked.[1993].DVDrip.[Gopo].avi
General
Complete name : D:\Naked.[1993].DVDrip.[Gopo]\Naked.[1993].DVDrip.[Gopo].avi
Format : AVI
Format/Info : Audio Video Interleave
File size : 701 MiB
Duration : 2h 11mn
Overall bit rate : 744 Kbps
Writing application : VirtualDubMod 1.5.4.1 (build 2178/release)
Writing library : VirtualDubMod build 2178/release
Video
Format : MPEG-4 Visual
Format profile : Streaming [email protected]
Format settings, BVOP : Yes
Format settings, QPel : No
Format settings, GMC : No warppoints
Format settings, Matrix : Custom
Codec ID : XVID
Codec ID/Hint : XviD
Duration : 2h 11mn
Bit rate : 622 Kbps
Width : 640 pixels
Height : 352 pixels
Display aspect ratio : 16/9
Frame rate : 23.976 fps
Resolution : 24 bits
Colorimetry : 4:2:0
Scan type : Progressive
Bits/(Pixel*Frame) : 0.115
Stream size : 586 MiB (84%)
Writing library : XviD 50
Audio
Format : MPEG Audio
Format version : Version 1
Format profile : Layer 3
Codec ID : 55
Codec ID/Hint : MP3
Duration : 2h 11mn
Bit rate mode : Variable
Bit rate : 109 Kbps
Minimum bit rate : 128 Kbps
Channel(s) : 2 channels
Sampling rate : 48.0 KHz
Resolution : 16 bits
Stream size : 103 MiB (15%)
Alignment : Aligned on interleaves
Interleave, duration : 24 ms (0.58 video frame)
Interleave, preload duration : 168 ms
Writing library : LAME3.98r
Encoding settings : ABR

PLOT:Johnny flees Manchester for London, to avoid a beating from the family of a girl he has raped. There he finds an old girlfriend, and spends some time homeless, spending much of his time ranting at strangers, and meeting characters in plights very much like his own.

SOURCE: from rapidshare. The size was 1.25GB ;i compress the avi 700mb with AutoGK

related torrents

Torrent name

health leech seeds Size

Naked(1993)

0 0 1.00 GB 0

Naked(1993)

0 0 1.36 GB 0
 


comments (0)

Main Menu