Jazz

(JazzPlanet) Miles Davis Ascenseur pour l'echafaud [Eac Flac Cue] UF SPG

  • Download 5x Faster
  • Download torrent
  • Direct Download
  • Rate this torrent +  |  -

Torrent info

Name:(JazzPlanet) Miles Davis Ascenseur pour l'echafaud [Eac Flac Cue] UF SPG

Total Size: 194.04 MB

Magnet: Magnet Link

Seeds: 0

Leechers: 0

Stream: Watch Online @ Movie4u

Last Updated: 2015-09-28 22:52:36 (Update Now)

Torrent added: 2009-09-02 11:35:45




Torrent Files List


scans (Size: 194.04 MB) (Files: 7)

 scans

  cd .png

2.57 MB

  front.jpg

3.00 MB

  inside.jpg

4.23 MB

  rear.jpg

2.19 MB

 Miles Davis - Ascenseur Pour L'Echafaud.cue

3.61 KB

 Miles Davis - Ascenseur Pour L'Echafaud.flac

182.04 MB

 Miles Davis - Ascenseur Pour L'Echafaud.log

5.46 KB
 

tracker

leech seeds
 

Torrent description

Miles Davis - Ascenseur pour l'echafaud

Title: Ascenseur pour l'echafaud
Leader Artist: Miles Davis
Genre: Jazz
Registred : 1958
Released: 2003
Number of Discs: 1
Format: Live
Label: Fontana
Extractor: EAC 0.99 prebeta 5
Read Mode: Read mode : Secure/ Utilize accurate stream : Yes/ Defeat audio cache : Yes/ Make use of C2 pointers : No
Codec: Flac 1.2.1b; Level 8
Files: Eac-Flac-Cue
Size Torrent: 194 Gb
Cover Inclused
Font: original CD

Tracklist

1 Generique
2 L'assassinat de Carala
3 Sur l'autoroute
4 Julien dans L'ascenseur
5 Florence sur les Chanp-Elysses
6 Diner au motel
7 Evasion de Julien
8 Visite du vigile
9 Au bar du Petit Bac
10 Chez le photographe du motel
11 Nuit sur le Champ-Elysesse (take 1)
12 Nuit sur le Champ-Elysesse (take 2)
13 Nuit sur le Champ-Elysesse (take 3)
14 Nuit sur le Champ-Elysesse (take 4)
15 Assassinat (take 1)
16 Assassinat (take 2)
17 Assassinat (take 3)
18 Motel
19 Final (take 1)
20 Final (take 2)
21 Final (take 3)
22 Ascenseur
23 Le petit bal (take 1)
24 Le petit bal (take 2)
25 Sequence voiture (take 1)
26 Sequence voiture (take 2)

Personnell

Miles Davis - trumpet
Barney Wilen - tenor saxophone
Rene Urtreger - piano
Pierre Michelot - bass
Kenny Clarke - drums

EAC log

Exact Audio Copy V0.99 prebeta 3 from 28. July 2007

EAC extraction logfile from 31. August 2009, 23:22

Miles Davis / Ascenseur Pour L'Echafaud

Used drive : ASUS DRW-2014L1T Adapter: 1 ID: 1

Read mode : Secure
Utilize accurate stream : Yes
Defeat audio cache : Yes
Make use of C2 pointers : No

Read offset correction : 6
Overread into Lead-In and Lead-Out : No
Fill up missing offset samples with silence : Yes
Delete leading and trailing silent blocks : No
Null samples used in CRC calculations : Yes
Used interface : Installed external ASPI interface

Used output format : User Defined Encoder
Selected bitrate : 1024 kBit/s
Quality : High
Add ID3 tag : No
Command line compressor : C:\Program Files\Exact Audio Copy\FLAC\FLAC.EXE
Additional command line options : -8 -V -T "ARTIST=%a" -T "TITLE=%t" -T "ALBUM=%g" -T "DATE=%y" -T "TRACKNUMBER=%n" -T "GENRE=%m" -T "COMMENT=%e" %s -o %d


TOC of the extracted CD

Track | Start | Length | Start sector | End sector
---------------------------------------------------------
1 | 0:00.00 | 2:52.07 | 0 | 12906
2 | 2:52.07 | 2:11.66 | 12907 | 22797
3 | 5:03.73 | 2:20.70 | 22798 | 33367
4 | 7:24.68 | 2:13.18 | 33368 | 43360
5 | 9:38.11 | 2:53.00 | 43361 | 56335
6 | 12:31.11 | 3:59.24 | 56336 | 74284
7 | 16:30.35 | 0:55.17 | 74285 | 78426
8 | 17:25.52 | 2:05.08 | 78427 | 87809
9 | 19:30.60 | 2:54.64 | 87810 | 100923
10 | 22:25.49 | 3:59.23 | 100924 | 118871
11 | 26:24.72 | 2:26.22 | 118872 | 129843
12 | 28:51.19 | 5:24.14 | 129844 | 154157
13 | 34:15.33 | 2:54.25 | 154158 | 167232
14 | 37:09.58 | 3:01.67 | 167233 | 180874
15 | 40:11.50 | 2:05.68 | 180875 | 190317
16 | 42:17.43 | 2:13.11 | 190318 | 200303
17 | 44:30.54 | 2:12.65 | 200304 | 210268
18 | 46:43.44 | 3:59.65 | 210269 | 228258
19 | 50:43.34 | 3:07.44 | 228259 | 242327
20 | 53:51.03 | 3:03.20 | 242328 | 256072
21 | 56:54.23 | 4:07.48 | 256073 | 274645
22 | 61:01.71 | 2:00.22 | 274646 | 283667
23 | 63:02.18 | 2:43.30 | 283668 | 295922
24 | 65:45.48 | 2:57.33 | 295923 | 309230
25 | 68:43.06 | 3:00.52 | 309231 | 322782
26 | 71:43.58 | 2:20.58 | 322783 | 333340


Range status and errors

Selected range

Filename M:\da rellare\(JazzPlanet) Miles Davis - Ascenseur pour l'?chafaud [Eac-Flac-Cue] UF SPG\Miles Davis - Ascenseur Pour L'Echafaud.wav

Peak level 85.2 %
Range quality 100.0 %
Test CRC 474694D0
Copy CRC 474694D0
Copy OK

No errors occurred


AccurateRip summary

Track 1 cannot be verified as accurate (confidence 3) [A5DF5E79], AccurateRip returned [2458BDDE]
Track 2 cannot be verified as accurate (confidence 3) [E4D9F373], AccurateRip returned [D40E2264]
Track 3 cannot be verified as accurate (confidence 3) [6925236C], AccurateRip returned [B05AD7D8]
Track 4 cannot be verified as accurate (confidence 3) [1A06E6FE], AccurateRip returned [17590369]
Track 5 cannot be verified as accurate (confidence 3) [E56B6A2B], AccurateRip returned [A532BDAD]
Track 6 cannot be verified as accurate (confidence 3) [404678B7], AccurateRip returned [5C694D14]
Track 7 cannot be verified as accurate (confidence 3) [7E2C9475], AccurateRip returned [7976B38B]
Track 8 cannot be verified as accurate (confidence 3) [55B8EE4E], AccurateRip returned [D32A0262]
Track 9 cannot be verified as accurate (confidence 3) [7CF62801], AccurateRip returned [9F6B93C7]
Track 10 cannot be verified as accurate (confidence 3) [76AE5872], AccurateRip returned [6A775AB2]
Track 11 cannot be verified as accurate (confidence 3) [A3D0613F], AccurateRip returned [F2426F5A]
Track 12 cannot be verified as accurate (confidence 3) [29A7BB20], AccurateRip returned [4296FA06]
Track 13 cannot be verified as accurate (confidence 3) [DDB54F7D], AccurateRip returned [A4019DA1]
Track 14 cannot be verified as accurate (confidence 3) [23E925BE], AccurateRip returned [63DA3DBA]
Track 15 cannot be verified as accurate (confidence 3) [4BBF29BB], AccurateRip returned [7B98A6F5]
Track 16 cannot be verified as accurate (confidence 3) [0F667408], AccurateRip returned [3BAC7032]
Track 17 accurately ripped (confidence 2) [E9C1521E]
Track 18 accurately ripped (confidence 2) [7ACEAEE9]
Track 19 accurately ripped (confidence 2) [74ACD345]
Track 20 accurately ripped (confidence 2) [9797FF1D]
Track 21 accurately ripped (confidence 2) [91F6026D]
Track 22 accurately ripped (confidence 2) [851DFD85]
Track 23 accurately ripped (confidence 2) [85E97638]
Track 24 accurately ripped (confidence 2) [793098B8]
Track 25 accurately ripped (confidence 2) [6A9AC054]
Track 26 accurately ripped (confidence 2) [E7B5A4DB]

0 track(s) accurately ripped
16 track(s) could not be verified as accurate

Some tracks could not be verified as accurate

End of status report


Bandwith

500 kb/sec 24/7

related torrents

Torrent name

health leech seeds Size
 


comments (0)

Main Menu