Drama

Into the Wild (2007)

  • Download 5x Faster
  • Download torrent
  • Direct Download
  • Rate this torrent +  |  -
Into the Wild (2007)

Free and Direct Download with Usenet 300GB+ free


Torrent info

Name:Into the Wild (2007)

Total Size: 800.13 MB

Magnet: Magnet Link

Seeds: 0

Leechers: 1

Stream: Watch Online @ Movie4u

Last Updated: 2011-02-14 08:42:05 (Update Now)

Torrent added: 2009-09-02 11:34:06




Torrent Files List


Into the Wild (2007).avi (Size: 800.13 MB) (Files: 2)

 Into the Wild (2007).avi

800.13 MB

 Torrent downloaded from Demonoid.com.txt

0.05 KB
 

Announce URL: http://tracker.publicbt.com/announce

Torrent description

!Into the Wild (2007) preview 0!

After graduating from Emory University, top student and athlete Christopher McCandless abandons his possessions, gives his entire $24,000 savings account to charity and hitchhikes to Alaska to live in the wilderness. Along the way, Christopher encounters a series of characters that shape his life.

!Into the Wild (2007) preview 1!

!Into the Wild (2007) preview 2!

Format : AVI
Format/Info : Audio Video Interleave
File size : 800 MiB
Duration : 2h 28mn
Overall bit rate : 755 Kbps
Writing application : VirtualDubMod 1.5.10.2 (build 2540/release)
Writing library : VirtualDubMod build 2540/release

Video
Format : MPEG-4 Visual
Format profile : Streaming Video@L1
Format settings, BVOP : Yes
Format settings, QPel : No
Format settings, GMC : No warppoints
Format settings, Matrix : Default
Muxing mode : Packed bitstream
Codec ID : DX50
Codec ID/Hint : DivX 5
Duration : 2h 28mn
Bit rate : 634 Kbps
Width : 608 pixels
Height : 246 pixels
Display aspect ratio : 2.472
Frame rate : 23.976 fps
Resolution : 24 bits
Colorimetry : 4:2:0
Scan type : Progressive
Bits/(Pixel*Frame) : 0.177
Stream size : 672 MiB (84%)
Writing library : XviD 1.1.0 (UTC 2005-11-22)

Audio
Format : MPEG Audio
Format version : Version 1
Format profile : Layer 3
Codec ID : 55
Codec ID/Hint : MP3
Duration : 2h 28mn
Bit rate mode : Constant
Bit rate : 112 Kbps
Channel(s) : 2 channels
Sampling rate : 44.1 KHz
Resolution : 16 bits
Stream size : 119 MiB (15%)
Alignment : Split accross interleaves
Interleave, duration : 42 ms (1.00 video frame)
Interleave, preload duration : 500 ms

related torrents

Torrent name

health leech seeds Size
 

comments (0)

Main Menu