Drama

Interview with the Assassin (2003) [h33t][snach]

  • Download 5x Faster
  • Download torrent
  • Direct Download
  • Rate this torrent +  |  -


Torrent info

Name:Interview with the Assassin (2003) [h33t][snach]

Total Size: 705.02 MB

Magnet: Magnet Link

Seeds: 1

Leechers: 0

Stream: Watch Full Movie @ Movie4u

Last Updated: 2016-10-20 21:57:09 (Update Now)

Torrent added: 2009-09-02 11:32:56



VPN For Torrents

Torrent Files List


INFO.txt (Size: 705.02 MB) (Files: 4)

 INFO.txt

3.54 KB

 Interview.with.the.Assassin.2003.DVDrip.xvid.mp3-snach.avi

705.02 MB

 Torrent downloaded from Demonoid.com.txt

0.05 KB

 tracked_by_h33t_com.txt

0.02 KB
 

tracker

leech seeds
 

Torrent description

--this is my own dvd rip of this great "documentary"--SNACH--

Interview With The Assasin (2003)


Program Info
Dallas. 1963. The Second Shooter
Almost forty years after John F. Kennedy's assassination an ex-Marine named
Walter Ohlinger has come forward with a startling claim:
"I was in Dallas November 22, 1963. Does that mean anything to you? I've never
told anyone this before: no one knows I was the second gunman behind the
stockade fence on what they called the grassy knoll. I fired one shot from
there."

U.S./2003/R/Color/85 Minutes/2.35 Widescreen/English

Directed by Neil Burger
Produced by David Levien & Brian Koppelman
Producers of Knockaround Guys
Writers of Runaway Jury, Knockaround Guys and Rounders

"It chills and terefies."-Peter Keough, Boston Phoenix
"So clever, it's seductive."-Owen Gleiberman, Entertainment Weekly
"A masterful film."-Robert Wilonsky, Dallas Observer
"Insidiously clever. It will keep you second-guessing right up to the last
frame."-Steven Garrett, IFC Rant
"An engrossing, tightly constructed thriller."-Glenn Kenny, Premiere Magazine

www.interviewwiththeassassin.com
Distributed by Showtime Entertainment


Video Info
Interview.with.the.Assassin.2003.DVDrip.xvid.mp3-snach.avi

Format : AVI
Format/Info : Audio Video Interleave
File size : 705 MiB
Duration : 1h 23mn
Overall bit rate : 1 187 Kbps
Movie name : INTERVIEW_ASSASSIN.Title3.DVDRip
Writing application : Lavf52.33.0
Original source form/Name : INTERVIEW_ASSASSIN

Video
ID : 0
Format : MPEG-4 Visual
Format profile : [email protected]
Format settings, BVOP : No
Format settings, QPel : No
Format settings, GMC : No warppoints
Format settings, Matrix : Default (H.263)
Codec ID : XVID
Codec ID/Hint : XviD
Duration : 1h 23mn
Bit rate : 1 045 Kbps
Width : 560 pixels
Height : 318 pixels
Display aspect ratio : 16/9
Frame rate : 29.970 fps
Resolution : 24 bits
Colorimetry : 4:2:0
Scan type : Progressive
Bits/(Pixel*Frame) : 0.196
Stream size : 621 MiB (88%)
Writing library : XviD 1.2.1 (UTC 2008-12-04)

Audio
ID : 1
Format : MPEG Audio
Format version : Version 1
Format profile : Layer 3
Codec ID : 55
Codec ID/Hint : MP3
Duration : 1h 23mn
Bit rate mode : Constant
Bit rate : 128 Kbps
Channel(s) : 2 channels
Sampling rate : 48.0 KHz
Resolution : 16 bits
Stream size : 76.0 MiB (11%)
Alignment : Aligned on interleaves
Interleave, duration : 24 ms (0.72 video frame)


Trackers
http://tracker.conspiracycentral.net/announce
http://www.h33t.com:3310/announce
http://inferno.demonoid.com:3417/announce
http://tracker.thepiratebay.org/announce
http://tracker.openbittorrent.com/announce

Visit & Join us at:
http://ConspiracyCentral.net

related torrents

Torrent name

health leech seeds Size
 


comments (0)

Main Menu

 

script data-cfasync="false" src="//d2ghscazvn398x.cloudfront.net/?cshgd=690275">