Drama

Indecent Proposal Divorce Edition By Metrostar

  • Download 5x Faster
  • Download torrent
  • Direct Download
  • Rate this torrent +  |  -
Indecent Proposal Divorce Edition By Metrostar

Anonymous and Free Direct Download


Torrent info

Name:Indecent Proposal Divorce Edition By Metrostar

Total Size: 1.18 GB

Magnet: Magnet Link

Seeds: 4

Leechers: 6

Stream: Watch Online @ Movie4u

Last Updated: 2010-09-24 23:13:09 (Update Now)

Torrent added: 2009-09-02 11:24:47



VPN For Torrents

Torrent Files List


Indecent Proposal - Divorce Edition - By Metrostar.avi (Size: 1.18 GB) (Files: 4)

 Indecent Proposal - Divorce Edition - By Metrostar.avi

1.00 GB

 Indecent Proposal - Divorce Edition - Deleted Scenes.avi

193.36 MB

 Indecent Proposal - Divorce Edition - By Metrostar.txt

4.36 KB

 Torrent downloaded from Demonoid.com.txt

0.05 KB
 

Announce URL: http://inferno.demonoid.com:3418/announce

Torrent description

!!!This is a fanedit. It was created for fun by fans and not profit. If you have a problem with that, don\\\'t bother commenting!!!

INDECENT PROPOSAL - DIVORCE EDITION - BY METROSTAR.

This is INDECENT PROPOSAL with a more realistic conclusion to what happens when you let your beautiful wife sleep with a rich man. The movie now has a more serious tone and feels less outdated.

What kind of fanedit : True Fanedit
Tagline : A husband. A wife. A millionaire. A proposal. A different ending.
Original film name: Indecent Proposal
New film name : Indecent Proposal: Divorce Edition
Film studio name : Paramount
Edit crew name : Metrostar
Date Original Film Was Released : 14th May 1993
Date Edit Was Released : 2nd August 2009
Original Runtime :112 MINUTES
New Runtime : 92 MINUTES
Amount of time Cut/Added : 20 minutes cut

Cuts removed/added/extended :

1. Cut opening scenes/voiceovers on pier with David and on bus with Diana.
2. Added music from soundtrack cd to opening titles.
3. Cut shot of stove without underpants.
4. Cut Diana saying "I love you, even without the money" and subsequent sex-scene and David looking at Diana while she sleeps.
5. Cut David and Diana embracing in hotel room paid for by Gage.
6. Cut Diana saying "He'd tell you to go to hell" and Gage saying "I didn't hear him say that." in pool game/proposal scene.
7. Cut David and Diana in bed talking about past lovers.
8. Cut all of Davids scenes showing what was happening to him while Diana was with Gage.
9. Cut Diana in the bathroom on the boat putting lipstick on.
10. Cut man in restaurant with food all over his jacket saying "I'm taking it off."
11. Cut Diana saying "I hate him" in fight with David at their home.
12. Cut some of Diana crying in paper chair.
13. Cut Jeremy on exercise bike saying "Hi Di" and David saying he's not there, Diana saying she doesn't want to talk to David and Jeremy telling Diana that she and David love each other and need to work it out.
14. Cut David taking shoes off table and picking towel off floor.
15. Cut Gage fooling around in foreign student class.
16. Removed audio of Gage saying "Nice people, they want the american dream" and Diana replying "They saw it in the flesh tonight" as they walk from foreign student class.
17. Cut David saying "Do you wanna know a secret, we're invincible" to Gage in the rain outside restaurant.
18. Cut Mr Shackleford seeing the ripped up photos of Diana taped back together and stuck on wall, after dumping David on the couch.
19. Cut everything after David signs the divorce papers.
20. Added new song to closing credits. "Life Ain't Always Beautiful" by Gary Allan now plays instead of "A Love So Beautiful" by Roy Orbison.

Fanedit details:

Video Format : MPEG-4 Visual
Codec ID : XVID
Duration : 1h 32mn
Bit rate : 1210 Kbps
Width : 704 pixels
Height : 400 pixels
Display aspect ratio : 16/9
Frame rate : 25.000 fps
Resolution : 24 bits
Bits/(Pixel*Frame) : 0.172
Stream size : 801 MiB (79%)

Audio Format : MPEG Audio
Format profile : Layer 3
Codec ID/Hint : MP3
Duration : 1h 32mn
Bit rate mode : Constant
Bit rate : 320 Kbps
Channel(s) : 2 channels
Sampling rate : 48.0 KHz
Resolution : 16 bits
Stream size : 212 MiB (21%)

Your intention for this fanedit: I wanted to reach a more realistic conclusion to what happens when you let your beautiful wife sleep with a rich man. I wanted to give the whole movie a more serious tone and do something about the dated interior furnishings and clothing fashions.

Your way to achieve your intention: I removed scenes/audio that alluded to or spoke about David and Diana being an 'invincibile' couple, and I removed everything after David signs the divorce papers. I cut the cheesy sex scene with music by Sade and I changed the whole movie from color to black and white.

Hardware and software information (what did you use to create your fanedit): Converted the DVD to Xvid with DVD Fab 5. Edited the video with Avidemux. Edited the audio with Cool Edit Pro 2. Used Sub Station Alpha to overlay a title in opening credits.

Additional Comment: I originally edited (chopped) this movie in May 1997 after it aired on TV. I used two VHS recorders to remove two scenes and the ending and I called it "The Viewers Cut" and it was just for personal use. I still have the tape of this version.

Time needed for the edition: A few mornings over a few weeks in July 2009.

Persons involved: Metrostar.

Disclaimer: You must own the original movie before acquiring any FanEdited movie.

Please comment and rate this fanedit here:
http://fanedit.org/7142/

Find out more about fanedits here:
http://fanedit.org/

related torrents

Torrent name

health leech seeds Size
 


comments (0)

Main Menu