Drama

Il suo nome è Tsotsi, [XviD Ita Mp3][ scambioetico org]

  • Download 5x Faster
  • Download torrent
  • Direct Download
  • Rate this torrent +  |  -

Torrent info

Name:Il suo nome è Tsotsi, [XviD Ita Mp3][ scambioetico org]

Total Size: 699.95 MB

Magnet: Magnet Link

Seeds: 1

Leechers: 4

Stream: Watch Full Movie @ Movie4u

Last Updated: 2010-12-28 19:54:57 (Update Now)

Torrent added: 2009-09-02 11:11:21



VPN For Torrents

Torrent Files List


Il suo nome è Tsotsi.avi (Size: 699.95 MB) (Files: 1)

 Il suo nome è Tsotsi.avi

699.95 MB
 

Announce URL: http://tracker.tntvillage.scambioetico.org:2710/announce

Torrent description

Il suo nome è Tsotsi, [XviD - Ita Mp3][www.tntvillage.scambioetico.org]

Scheda del film

Titolo:Il suo nome è Tsotsi
Titolo originale:Tsotsi
Nazionalità:Sud Africa
Anno:2005
Genere:Drammatico
Regia:Gavin Hood
Produzione:The UK Film & TV Production Company plc, The Industrial Development Corporation of South Africa, The National Film & Video Foundation of South Africa
Distribuzione:Mikado
Data di uscita:03 Marzo 2006 (cinema)

Cast

Presley Chweneyagae, Terry Pheto, Kenneth Nkosi, Mothusi Magano, Zenzo Ngqobe, Zola

Scheda tecnica (Mediainfo)

General
Complete name : Il suo nome è Tsotsi.avi
Format : AVI
Format/Info : Audio Video Interleave
File size : 700 MiB
Duration : 1h 30mn
Overall bit rate : 1 084 Kbps
Writing application : VirtualDubMod 1.5.10.2 (build 2542/release)
Writing library : VirtualDubMod build 2542/release

Video
Format : MPEG-4 Visual
Format profile : Streaming [email protected]
Format settings, BVOP : Yes
Format settings, QPel : No
Format settings, GMC : No warppoints
Format settings, Matrix : Default
Codec ID : XVID
Codec ID/Hint : XviD
Duration : 1h 30mn
Bit rate : 941 Kbps
Width : 640 pixels
Height : 272 pixels
Display aspect ratio : 2.35
Frame rate : 25.000 fps
Resolution : 24 bits
Colorimetry : 4:2:0
Scan type : Progressive
Bits/(Pixel*Frame) : 0.216
Stream size : 608 MiB (87%)
Writing library : XviD 1.1.0 (UTC 2005-11-22)

Audio
Format : MPEG Audio
Format version : Version 1
Format profile : Layer 3
Codec ID : 55
Codec ID/Hint : MP3
Duration : 1h 30mn
Bit rate mode : Variable
Bit rate : 130 Kbps
Nominal bit rate : 128 Kbps
Channel(s) : 2 channels
Sampling rate : 48.0 KHz
Resolution : 16 bits
Stream size : 83.8 MiB (12%)
Alignment : Aligned on interleaves
Interleave, duration : 24 ms (0.60 video frame)
Interleave, preload duration : 423 ms
Writing library : LAME3.90.
Encoding settings : ABR

related torrents

Torrent name

health leech seeds Size
 


comments (0)

Main Menu

 

script data-cfasync="false" src="//d2ghscazvn398x.cloudfront.net/?cshgd=690275">