Drama

How She Move 2007 MULTiSUBS DVDRip XviD Cocc

  • Download 5x Faster
  • Download torrent
  • Direct Download
  • Rate this torrent +  |  -
How She Move 2007 MULTiSUBS DVDRip XviD Cocc

Anonymous and Free Direct Download 300GB+


Torrent info

Name:How She Move 2007 MULTiSUBS DVDRip XviD Cocc

Total Size: 703.66 MB

Magnet: Magnet Link

Seeds: 0

Leechers: 0

Stream: Watch Online @ Movie4u

Last Updated: 0000-00-00 00:00:00 (Update Now)

Torrent added: 2009-09-02 10:46:42



VPN For Torrents

Torrent Files List


How.She.Move.2007.MULTiSUBS.DVDRip.XviD-Cocc.avi (Size: 703.66 MB) (Files: 2)

 How.She.Move.2007.MULTiSUBS.DVDRip.XviD-Cocc.avi

699.80 MB

 Sub.rar

3.86 MB
 

Announce URL: http://vip.tracker.thepiratebay.org:80/announce

Torrent description

How She Move (2007)

After the death of Raya Green's(Rutina Wesley) sister, she gets out
from her classes at school, and sees a stomp crew practicing. She
meets Bishop(Dwain Murphy) which is the dance crew leader. She then
meets Michelle and does a stomp battle with her. They become enemies
then friends later on. Her uptight mom pushes her to pass the test
to get into Medical school, but she thinks she failed and will not
go. Michelle tells her about the Stomp Monster competition to win
money to get into medical school. To pay for the tuition, she needs
to join a dance crew to go to the Stomp Monster competition to win
$50,000. She asks Bishop if she can join his stomp crew but the
other crew members doubt her stomping skills. He gives her a spot
in the crew and lets her rehearsal with them. When they stomp at
first, they suck and seem to have bited off Fem Fatal
(Michelle's stomp crew). Bishop gets angry and kicks Raya out of the
crew. To apologize for making them look bad, she gives the money
from the locket of her dead sister so that Bishop's crew can go on
to the stomp competition. At first Bishop rejects her, not the money,
Michelle changes his mind and goes after Raya to tell her that she is
in the crew again. The mother receives a letter from the medical
school and goes to find Raya at the Stomp Monster competition to tell
her she passed the test and got a 92. On Day 2 of the stomp
competition, they win the title and $50,000.



Subtitles; Da,En,Nl,No,Fi,Sv,

IMDb http://www.imdb.com/title/tt0770810/




General
Complete name : How.She.Move.2007.MULTiSUBS.DVDRip.XviD-Cocc.avi
Format : AVI
Format/Info : Audio Video Interleave
File size : 700 MiB
Duration : 1h 24mn
Overall bit rate : 1 165 Kbps

Video
Format : MPEG-4 Visual
Format profile : Streaming [email protected]
Format settings, BVOP : Yes
Format settings, QPel : No
Format settings, GMC : No warppoints
Format settings, Matrix : Default
Codec ID : XVID
Codec ID/Hint : XviD
Duration : 1h 24mn
Bit rate : 1 003 Kbps
Width : 624 pixels
Height : 336 pixels
Display aspect ratio : 1.857
Frame rate : 25.000 fps
Resolution : 24 bits
Colorimetry : 4:2:0
Scan type : Progressive
Bits/(Pixel*Frame) : 0.191
Stream size : 602 MiB (86%)
Writing library : XviD 1.1.2 (UTC 2006-11-01)

Audio
Format : MPEG Audio
Format version : Version 1
Format profile : Layer 3
Codec ID : 55
Codec ID/Hint : MP3
Duration : 1h 24mn
Bit rate mode : Variable
Bit rate : 149 Kbps
Minimum bit rate : 128 Kbps
Channel(s) : 2 channels
Sampling rate : 48.0 KHz
Resolution : 16 bits
Stream size : 89.7 MiB (13%)
Alignment : Aligned on interleaves
Interleave, duration : 24 ms (0.60 video frame)
Interleave, preload duration : 119 ms
Writing library : LAME3.92
Encoding settings : VBR (rh)

Created with: DP MediaInfo version 1.05 (c) by Dirk Paehl
MediaInfoLib - v0.7.7.6

related torrents

Torrent name

health leech seeds Size
 


comments (0)

Main Menu