Drama

High Roller The Stu Ungar Story DVDrip Eng Xvid MP3 M333

  • Download 5x Faster
  • Download torrent
  • Direct Download
  • Rate this torrent +  |  -
High Roller The Stu Ungar Story DVDrip Eng Xvid MP3 M333

Anonymous and Direct Download 300GB+ free


Torrent info

Name:High Roller The Stu Ungar Story DVDrip Eng Xvid MP3 M333

Total Size: 789.44 MB

Magnet: Magnet Link

Seeds: 4

Leechers: 0

Stream: Watch Online @ Movie4u

Last Updated: 2015-09-28 16:28:36 (Update Now)

Torrent added: 2009-09-02 10:32:03




Torrent Files List


high roller.jpg (Size: 789.44 MB) (Files: 4)

 high roller.jpg

59.85 KB

 High.Roller.The.Stu.Ungar.Story.DVDrip.Eng.Xvid.MP3. M333.avi

789.38 MB

 NFO.txt

2.04 KB

 tracked_by_h33t_com.txt

0.02 KB
 

tracker

leech seeds
 

Torrent description

Based on the true story of the rise and fall of poker legend Stu "The Kid" Ungar.

General
Complete name : High.Roller.The.Stu.Ungar.Story.DVDrip.Eng.Xvid.MP3. M333.avi
Format : AVI
Format/Info : Audio Video Interleave
File size : 789 MiB
Duration : 1h 46mn
Overal bit rate : 1035 Kbps
Writing application : VirtualDubMod 1.5.10.1 (build 2439/release)
Writing library : VirtualDubMod build 2439/release

Video
Format : MPEG-4 Visual
Format settings, BVOP : No
Format settings, QPel : No
Format settings, GMC : No warppoints
Format settings, Matrix : Default
Codec ID : XVID
Codec ID/Hint : XviD
Duration : 1h 46mn
Bit rate : 899 Kbps
Width : 576 pixels
Height : 320 pixels
Display aspect ratio : 16/9
Frame rate : 29.970 fps
Resolution : 8 bits
Colorimetry : 4:2:0
Scan type : Progressive
Bits/(Pixel*Frame) : 0.163
Stream size : 686 MiB

Audio
Format : MPEG Audio
Format version : Version 1
Format profile : Layer 3
Codec ID : 55
Codec ID/Hint : MP3
Duration : 1h 46mn
Bit rate mode : Variable
Bit rate : 122 Kbps
Minimum bit rate : 128 Kbps
Channel(s) : 2 channels
Sampling rate : 48.0 KHz
Resolution : 16 bits
Stream size : 93.3 MiB
Writing library : LAME3.96r
Encoding settings : ABR

http://www.imdb.com/title/tt0338467/

related torrents

Torrent name

health leech seeds Size
 


comments (0)

Main Menu