Drama

Meet Joe Black 1998 HDRip XviD AC3 Subs TmG [ceasers palace info]

  • Download 5x Faster
  • Download torrent
  • Direct Download
  • Rate this torrent +  |  -
Meet Joe Black 1998 HDRip XviD AC3 Subs TmG [ceasers palace info]

Free and Direct Download with Usenet 300GB+ free


Torrent info

Name:Meet Joe Black 1998 HDRip XviD AC3 Subs TmG [ceasers palace info]

Total Size: 2.19 GB

Magnet: Magnet Link

Seeds: 0

Leechers: 0

Stream: Watch Online @ Movie4u

Last Updated: 2015-07-31 00:59:57 (Update Now)

Torrent added: 2009-09-02 10:18:17




Torrent Files List


Meet.Joe.Black.1998.HDRip.XviD.AC3.Subs-TmG.part01.rar (Size: 2.19 GB) (Files: 48)

 Meet.Joe.Black.1998.HDRip.XviD.AC3.Subs-TmG.part01.rar

47.68 MB

 Meet.Joe.Black.1998.HDRip.XviD.AC3.Subs-TmG.part02.rar

47.68 MB

 Meet.Joe.Black.1998.HDRip.XviD.AC3.Subs-TmG.part03.rar

47.68 MB

 Meet.Joe.Black.1998.HDRip.XviD.AC3.Subs-TmG.part04.rar

47.68 MB

 Meet.Joe.Black.1998.HDRip.XviD.AC3.Subs-TmG.part05.rar

47.68 MB

 Meet.Joe.Black.1998.HDRip.XviD.AC3.Subs-TmG.part06.rar

47.68 MB

 Meet.Joe.Black.1998.HDRip.XviD.AC3.Subs-TmG.part07.rar

47.68 MB

 Meet.Joe.Black.1998.HDRip.XviD.AC3.Subs-TmG.part08.rar

47.68 MB

 Meet.Joe.Black.1998.HDRip.XviD.AC3.Subs-TmG.part09.rar

47.68 MB

 Meet.Joe.Black.1998.HDRip.XviD.AC3.Subs-TmG.part10.rar

47.68 MB

 Meet.Joe.Black.1998.HDRip.XviD.AC3.Subs-TmG.part11.rar

47.68 MB

 Meet.Joe.Black.1998.HDRip.XviD.AC3.Subs-TmG.part12.rar

47.68 MB

 Meet.Joe.Black.1998.HDRip.XviD.AC3.Subs-TmG.part13.rar

47.68 MB

 Meet.Joe.Black.1998.HDRip.XviD.AC3.Subs-TmG.part14.rar

47.68 MB

 Meet.Joe.Black.1998.HDRip.XviD.AC3.Subs-TmG.part15.rar

47.68 MB

 Meet.Joe.Black.1998.HDRip.XviD.AC3.Subs-TmG.part16.rar

47.68 MB

 Meet.Joe.Black.1998.HDRip.XviD.AC3.Subs-TmG.part17.rar

47.68 MB

 Meet.Joe.Black.1998.HDRip.XviD.AC3.Subs-TmG.part18.rar

47.68 MB

 Meet.Joe.Black.1998.HDRip.XviD.AC3.Subs-TmG.part19.rar

47.68 MB

 Meet.Joe.Black.1998.HDRip.XviD.AC3.Subs-TmG.part20.rar

47.68 MB

 Meet.Joe.Black.1998.HDRip.XviD.AC3.Subs-TmG.part21.rar

47.68 MB

 Meet.Joe.Black.1998.HDRip.XviD.AC3.Subs-TmG.part22.rar

47.68 MB

 Meet.Joe.Black.1998.HDRip.XviD.AC3.Subs-TmG.part23.rar

47.68 MB

 Meet.Joe.Black.1998.HDRip.XviD.AC3.Subs-TmG.part24.rar

47.68 MB

 Meet.Joe.Black.1998.HDRip.XviD.AC3.Subs-TmG.part25.rar

47.68 MB

 Meet.Joe.Black.1998.HDRip.XviD.AC3.Subs-TmG.part26.rar

47.68 MB

 Meet.Joe.Black.1998.HDRip.XviD.AC3.Subs-TmG.part27.rar

47.68 MB

 Meet.Joe.Black.1998.HDRip.XviD.AC3.Subs-TmG.part28.rar

47.68 MB

 Meet.Joe.Black.1998.HDRip.XviD.AC3.Subs-TmG.part29.rar

47.68 MB

 Meet.Joe.Black.1998.HDRip.XviD.AC3.Subs-TmG.part30.rar

47.68 MB

 Meet.Joe.Black.1998.HDRip.XviD.AC3.Subs-TmG.part31.rar

47.68 MB

 Meet.Joe.Black.1998.HDRip.XviD.AC3.Subs-TmG.part32.rar

47.68 MB

 Meet.Joe.Black.1998.HDRip.XviD.AC3.Subs-TmG.part33.rar

47.68 MB

 Meet.Joe.Black.1998.HDRip.XviD.AC3.Subs-TmG.part34.rar

47.68 MB

 Meet.Joe.Black.1998.HDRip.XviD.AC3.Subs-TmG.part35.rar

47.68 MB

 Meet.Joe.Black.1998.HDRip.XviD.AC3.Subs-TmG.part36.rar

47.68 MB

 Meet.Joe.Black.1998.HDRip.XviD.AC3.Subs-TmG.part37.rar

47.68 MB

 Meet.Joe.Black.1998.HDRip.XviD.AC3.Subs-TmG.part38.rar

47.68 MB

 Meet.Joe.Black.1998.HDRip.XviD.AC3.Subs-TmG.part39.rar

47.68 MB

 Meet.Joe.Black.1998.HDRip.XviD.AC3.Subs-TmG.part40.rar

47.68 MB

 Meet.Joe.Black.1998.HDRip.XviD.AC3.Subs-TmG.part41.rar

47.68 MB

 Meet.Joe.Black.1998.HDRip.XviD.AC3.Subs-TmG.part42.rar

47.68 MB

 Meet.Joe.Black.1998.HDRip.XviD.AC3.Subs-TmG.part43.rar

47.68 MB

 Meet.Joe.Black.1998.HDRip.XviD.AC3.Subs-TmG.part44.rar

47.68 MB

 Meet.Joe.Black.1998.HDRip.XviD.AC3.Subs-TmG.part45.rar

47.68 MB

 Meet.Joe.Black.1998.HDRip.XviD.AC3.Subs-TmG.part46.rar

47.68 MB

 Meet.Joe.Black.1998.HDRip.XviD.AC3.Subs-TmG.part47.rar

44.13 MB

 Meet.Joe.Black.1998.HDRip.XviD.AC3.Subs-TmG.sfv

7.29 KB
 

tracker

leech seeds
 

Torrent description

Format : AVI
Format/Info : Audio Video Interleave
Format profile : OpenDML
File size : 2.18 GiB
Duration : 3h 0mn
Overall bit rate : 1 733 Kbps
Writing application : VirtualDubMod 1.5.10.3 | www.virtualdub-fr.org || (build 2550/release)
Writing library : VirtualDubMod build 2550/release

Video
ID : 0
Format : MPEG-4 Visual
Format profile : Streaming Video@L1
Format settings, BVOP : Yes
Format settings, QPel : No
Format settings, GMC : No warppoints
Format settings, Matrix : Default (MPEG)
Codec ID : XVID
Codec ID/Hint : XviD
Duration : 3h 0mn
Bit rate : 1 401 Kbps
Width : 720 pixels
Height : 384 pixels
Display aspect ratio : 1.875
Frame rate : 23.976 fps
Resolution : 24 bits
Colorimetry : 4:2:0
Scan type : Progressive
Bits/(Pixel*Frame) : 0.211
Stream size : 1.77 GiB (81%)
Writing library : XviD 1.2.1 (UTC 2008-12-04)

Audio
ID : 1
Format : AC-3
Format/Info : Audio Coding 3
Codec ID : 2000
Duration : 3h 0mn
Bit rate mode : Constant
Bit rate : 320 Kbps
Channel(s) : 6 channels
Channel positions : Front: L C R, Surround: L R, LFE
Sampling rate : 48.0 KHz
Stream size : 413 MiB (18%)
Alignment : Split accross interleaves
Interleave, duration : 42 ms (1.00 video frame)
Interleave, preload duration : 500 ms

related torrents

Torrent name

health leech seeds Size
 

comments (0)

Main Menu