Drama

Hard Core Logo 1996 DivX DrTerrible [

  • Download 5x Faster
  • Download torrent
  • Direct Download
  • Rate this torrent +  |  -
Hard Core Logo 1996 DivX DrTerrible [

Download FREE And Anonymously


Torrent info

Name:Hard Core Logo 1996 DivX DrTerrible [

Total Size: 656.10 MB

Magnet: Magnet Link

Seeds: 0

Leechers: 0

Stream: Watch Full Movie @ Movie4u

Last Updated: 0000-00-00 00:00:00 (Update Now)

Torrent added: 2009-09-02 10:16:24



VPN For Torrents

Torrent Files List


Hard Core Logo 1996 Avi-DrTerrible.nfo (Size: 656.10 MB) (Files: 48)

 Hard Core Logo 1996 Avi-DrTerrible.nfo

2.67 KB

 Hard Core Logo 1996 Avi-DrTerrible.r00

14.31 MB

 Hard Core Logo 1996 Avi-DrTerrible.r01

14.31 MB

 Hard Core Logo 1996 Avi-DrTerrible.r02

14.31 MB

 Hard Core Logo 1996 Avi-DrTerrible.r03

14.31 MB

 Hard Core Logo 1996 Avi-DrTerrible.r04

14.31 MB

 Hard Core Logo 1996 Avi-DrTerrible.r05

14.31 MB

 Hard Core Logo 1996 Avi-DrTerrible.r06

14.31 MB

 Hard Core Logo 1996 Avi-DrTerrible.r07

14.31 MB

 Hard Core Logo 1996 Avi-DrTerrible.r08

14.31 MB

 Hard Core Logo 1996 Avi-DrTerrible.r09

14.31 MB

 Hard Core Logo 1996 Avi-DrTerrible.r10

14.31 MB

 Hard Core Logo 1996 Avi-DrTerrible.r11

14.31 MB

 Hard Core Logo 1996 Avi-DrTerrible.r12

14.31 MB

 Hard Core Logo 1996 Avi-DrTerrible.r13

14.31 MB

 Hard Core Logo 1996 Avi-DrTerrible.r14

14.31 MB

 Hard Core Logo 1996 Avi-DrTerrible.r15

14.31 MB

 Hard Core Logo 1996 Avi-DrTerrible.r16

14.31 MB

 Hard Core Logo 1996 Avi-DrTerrible.r17

14.31 MB

 Hard Core Logo 1996 Avi-DrTerrible.r18

14.31 MB

 Hard Core Logo 1996 Avi-DrTerrible.r19

14.31 MB

 Hard Core Logo 1996 Avi-DrTerrible.r20

14.31 MB

 Hard Core Logo 1996 Avi-DrTerrible.r21

14.31 MB

 Hard Core Logo 1996 Avi-DrTerrible.r22

14.31 MB

 Hard Core Logo 1996 Avi-DrTerrible.r23

14.31 MB

 Hard Core Logo 1996 Avi-DrTerrible.r24

14.31 MB

 Hard Core Logo 1996 Avi-DrTerrible.r25

14.31 MB

 Hard Core Logo 1996 Avi-DrTerrible.r26

14.31 MB

 Hard Core Logo 1996 Avi-DrTerrible.r27

14.31 MB

 Hard Core Logo 1996 Avi-DrTerrible.r28

14.31 MB

 Hard Core Logo 1996 Avi-DrTerrible.r29

14.31 MB

 Hard Core Logo 1996 Avi-DrTerrible.r30

14.31 MB

 Hard Core Logo 1996 Avi-DrTerrible.r31

14.31 MB

 Hard Core Logo 1996 Avi-DrTerrible.r32

14.31 MB

 Hard Core Logo 1996 Avi-DrTerrible.r33

14.31 MB

 Hard Core Logo 1996 Avi-DrTerrible.r34

14.31 MB

 Hard Core Logo 1996 Avi-DrTerrible.r35

14.31 MB

 Hard Core Logo 1996 Avi-DrTerrible.r36

14.31 MB

 Hard Core Logo 1996 Avi-DrTerrible.r37

14.31 MB

 Hard Core Logo 1996 Avi-DrTerrible.r38

14.31 MB

 Hard Core Logo 1996 Avi-DrTerrible.r39

14.31 MB

 Hard Core Logo 1996 Avi-DrTerrible.r40

14.31 MB

 Hard Core Logo 1996 Avi-DrTerrible.r41

14.31 MB

 Hard Core Logo 1996 Avi-DrTerrible.r42

14.31 MB

 Hard Core Logo 1996 Avi-DrTerrible.r43

14.31 MB

 Hard Core Logo 1996 Avi-DrTerrible.r44

12.36 MB

 Hard Core Logo 1996 Avi-DrTerrible.rar

14.31 MB

 Hard Core Logo 1996 Avi-DrTerrible.sfv

5.82 KB
 

Announce URL: http://tracker.ilovetorrents.com/announce.php

Torrent description

General
Complete name : C:\Documents and Settings\Administrator\My Documents\Hard core logo.avi
Format : AVI
Format/Info : Audio Video Interleave
File size : 650 MiB
Duration : 1h 32mn
Overall bit rate : 987 Kbps
Writing library : VirtualDub build 23774/release

Video
Format : MPEG-4 Visual
Format settings, BVOP : No
Format settings, QPel : No
Format settings, GMC : No warppoints
Format settings, Matrix : Default
Codec ID : DX50
Codec ID/Hint : DivX 5
Duration : 1h 32mn
Bit rate : 850 Kbps
Width : 720 pixels
Height : 480 pixels
Display aspect ratio : 1.500
Frame rate : 23.976 fps
Standard : NTSC
Resolution : 24 bits
Colorimetry : 4:2:0
Scan type : Progressive
Bits/(Pixel*Frame) : 0.103
Stream size : 559 MiB (86%)
Writing library : DivX 5.2.1 (DrDivX 106) (UTC 2004-09-08)

Audio
Format : MPEG Audio
Format version : Version 1
Format profile : Layer 3
Codec ID : 55
Codec ID/Hint : MP3
Duration : 1h 32mn
Bit rate mode : Constant
Bit rate : 128 Kbps
Channel(s) : 2 channels
Sampling rate : 48.0 KHz
Resolution : 16 bits
Stream size : 84.2 MiB (13%)
Alignment : Split accross interleaves
Interleave, duration : 42 ms (1.00 video frame)
Interleave, preload duration : 500 ms

------------------------------------------------------------------------------
http://www.imdb.com/title/tt0116488
------------------------------------------------------------------------------
Plot:

Bruce Macdonald follows punk bank Hard Core Logo on a harrowing last-gasp
reunion tour throughout Western Canada. As magnetic lead-singer Joe Dick holds
the whole magilla together through sheer force of will, all the tensions and
pitfalls of life on the road come bubbling to the surface.

related torrents

Torrent name

health leech seeds Size

Hard Core Logo mp4

0 0 1.35 GB 0

Hard Core Logo (1996)

0 0 1.35 GB 0

Hard core logo dvd iso

0 0 2.00 GB 0

Hard Core Logo Rar

0 1 730.00 MB 0
 


comments (0)

Main Menu

 

script data-cfasync="false" src="//d2ghscazvn398x.cloudfront.net/?cshgd=690275">