Other

Project: Alf (+ NL ondertiteling en herstelde ondertitelingen ALF seizoenen 1 4)

  • Download 5x Faster
  • Download torrent
  • Direct Download
  • Rate this torrent +  |  -


Torrent info

Name:Project: Alf (+ NL ondertiteling en herstelde ondertitelingen ALF seizoenen 1 4)

Total Size: 698.45 MB

Magnet: Magnet Link

Seeds: 1

Leechers: 1

Stream: Watch Online @ Movie4u

Last Updated: 2010-07-18 07:49:55 (Update Now)

Torrent added: 2009-09-02 10:13:44





Torrent Files List


Alf - Season 2 (Dutch subtitles).zip (Size: 698.45 MB) (Files: 6)

 Alf - Season 2 (Dutch subtitles).zip

254.32 KB

 Alf - Season 3 (Dutch subtitles).zip

271.81 KB

 Alf - Season 4 ~Dutch subtitles~.zip

256.80 KB

 Alf- Season 1 (Dutch subtitles).zip

278.90 KB

 Project ALF - DVDrip (Comedy, Sci-Fi, Family 1996 XviD)--Dutch subtitles--.rar

42.69 KB

 Project ALF - DVDrip (Comedy, Sci-Fi, Family 1996 XviD).avi

697.37 MB
 

Announce URL: http://denis.stalker.h3q.com/announce

Torrent description

General
Complete name : C:\Documents and Settings\Ik\Bureaublad\Project Alf\Project ALF - DVDrip (Comedy, Sci-Fi, Family 1996 XviD).avi
Format : AVI
Format/Info : Audio Video Interleave
File size : 697 MiB
Duration : 1h 31mn
Overall bit rate : 1 061 Kbps
Writing application : FairUse Wizard - http://fairusewizard.com
Writing library : The best and REALLY easy backup tool

Video
Format : MPEG-4 Visual
Format profile : Streaming [email protected]
Format settings, BVOP : Yes
Format settings, QPel : No
Format settings, GMC : No warppoints
Format settings, Matrix : Default (H.263)
Muxing mode : Packed bitstream
Codec ID : XVID
Codec ID/Hint : XviD
Duration : 1h 31mn
Bit rate : 860 Kbps
Width : 528 pixels
Height : 384 pixels
Display aspect ratio : 1.375
Frame rate : 23.976 fps
Resolution : 24 bits
Colorimetry : 4:2:0
Scan type : Progressive
Bits/(Pixel*Frame) : 0.177
Stream size : 565 MiB (81%)
Writing library : XviD 1.1.0 (UTC 2005-11-22)

Audio
Format : AC-3
Format/Info : Audio Coding 3
Codec ID : 2000
Duration : 1h 31mn
Bit rate mode : Constant
Bit rate : 192 Kbps
Channel(s) : 2 channels
Channel positions : L R
Sampling rate : 48.0 KHz
Stream size : 126 MiB (18%)
Alignment : Split accross interleaves
Interleave, duration : 42 ms (1.00 video frame)
Interleave, preload duration : 500 ms
--------------------------------------------------------------------
Bijgevoegd: Project: Alf nederlandse ondertiteling (winrar)

Bonus:

Verbeterde ondertiteling: ALF seizoenen 1-4 (zip)
Ondertitelingen van deze seizoenen lopen sync bij mijn eerdr geplaatste torrents.
Ben tot mijn verbazing nogal wat gebrekkigheden tegengekomen en heb ze allemaal zodoende hersteld. Sorry voor het ongemak.

related torrents

Torrent name

health leech seeds Size

project alf

5 6 947.24 MB 0

project alf no subs

7 15 700.23 MB 0
 

comments (0)

Main Menu