Other

Tutte Pazze Per Charlie x264 720p AC3 ITA tSitG

  • Download 5x Faster
  • Download torrent
  • Direct Download
  • Rate this torrent +  |  -
Tutte Pazze Per Charlie x264 720p AC3 ITA tSitG

Anonymous and Free Direct Download


Torrent info

Name:Tutte Pazze Per Charlie x264 720p AC3 ITA tSitG

Total Size: 4.23 GB

Magnet: Magnet Link

Seeds: 0

Leechers: 0

Stream: Watch Online @ Movie4u

Last Updated: 2010-07-27 12:56:54 (Update Now)

Torrent added: 2009-09-02 10:04:50



VPN For Torrents

Torrent Files List


Good_Luck_Chuck-[x264_720p-AC3_ITA][tSitG].mkv (Size: 4.23 GB) (Files: 4)

 Good_Luck_Chuck-[x264_720p-AC3_ITA][tSitG].mkv

4.23 GB

 Good_Luck_Chuck-[x264_720p-AC3_ITA][tSitG].mkv.txt

2.67 KB

 Torrent downloaded from Demonoid.com.txt

0.05 KB

 www.marcomem.tk

0.02 KB
 

Announce URL: http://open.tracker.thepiratebay.org/announce

Torrent description

tSitG [email protected]

General
Format : Matroska
File size : 4.23 GiB
Duration : 1h 37mn
Overall bit rate : 6 227 Kbps
Movie name : Tutte Pazze Per Charlie
Encoded date : UTC 2009-01-21 21:13:16
Writing application : mkvmerge v2.4.1 (\'Use Me\') built on Dec 5 2008 18:30:05
Writing library : libebml v0.7.7 + libmatroska v0.8.1

Video
ID : 1
Format : AVC
Format/Info : Advanced Video Codec
Format profile : [email protected]
Format settings, CABAC : Yes
Format settings, ReFrames : 8 frames
Muxing mode : Container [email protected]
Codec ID : V_MPEG4/ISO/AVC
Duration : 1h 37mn
Bit rate : 5 655 Kbps
Nominal bit rate : 5 538 Kbps
Width : 1 280 pixels
Height : 720 pixels
Display aspect ratio : 16/9
Frame rate : 25.000 fps
Original frame rate : 23.976 fps
Resolution : 24 bits
Colorimetry : 4:2:0
Scan type : Progressive
Bits/(Pixel*Frame) : 0.245
Stream size : 3.84 GiB (91%)
Writing library : x264 core 57 svn-709C
Encoding settings : cabac=1 / ref=5 / deblock=1:-3:-2 / analyse=0x1:0 / me=umh / fpel_cmp=sad / subme=7 / me-prepass=0 / brdo=1 / mixed_ref=1 / me_range=16 / chroma_me=1 / trellis=1 / 8x8dct=0 / cqm=2 / deadzone=21,11 / chroma_qp_offset=0 / threads=6 / nr=0 / decimate=1 / mbaff=0 / bframes=3 / b_pyramid=1 / b_adapt=1 / b_bias=0 / direct=1 / wpredb=1 / bime=1 / keyint=250 / keyint_min=25 / scenecut=40(pre) / rc=2pass / bitrate=5538 / ratetol=1.0 / rceq=\'blurCplx^(1-qComp)\' / qcomp=0.60 / qpmin=10 / qpmax=51 / qpstep=4 / cplxblur=20.0 / qblur=0.5 / ip_ratio=1.40 / pb_ratio=1.30
Language : English

Audio
ID : 2
Format : AC-3
Format/Info : Audio Coding 3
Codec ID : A_AC3
Duration : 1h 37mn
Bit rate mode : Constant
Bit rate : 448 Kbps
Channel(s) : 6 channels
Channel positions : Front: L C R, Surround: L R, LFE
Sampling rate : 48.0 KHz
Stream size : 311 MiB (7%)
Language : Italian

related torrents

Torrent name

health leech seeds Size
 


comments (0)

Main Menu