Drama

Man in the Chair 2007 DVDRIP ZEKTORM

  • Download 5x Faster
  • Download torrent
  • Direct Download
  • Rate this torrent +  |  -
Man in the Chair 2007 DVDRIP ZEKTORM

Free and Direct Download with Usenet.nl 300GB+ free


Torrent info

Name:Man in the Chair 2007 DVDRIP ZEKTORM

Total Size: 711.58 MB

Magnet: Magnet Link

Seeds: 0

Leechers: 0

Stream: Watch Online @ Movie4u

Last Updated: 0000-00-00 00:00:00 (Update Now)

Torrent added: 2009-09-02 10:03:07





Torrent Files List


Man.in.the.Chair.2007.DVDRIP-ZEKTORM.mp4 (Size: 711.58 MB) (Files: 4)

 Man.in.the.Chair.2007.DVDRIP-ZEKTORM.mp4

700.07 MB

 READ.hlp

12.95 KB

 Subs

  Man.in.the.Chair.2007.DVDRIP-ZEKTORM.idx

134.51 KB

  Man.in.the.Chair.2007.DVDRIP-ZEKTORM.sub

11.36 MB
 

Announce URL: http://eztv.tracker.thepiratebay.org:80/announce

Torrent description

Title : Man in the Chair
Year : 2007
Genre : Comedy | Drama
iMDB Rate : User Rating: 7.8/10 339 votes
iMDB URL : http://www.imdb.com/title/tt0489225/
Awards : 8 wins & 1 nomination

Complete name : Man.in.the.Chair.2007.DVDRIP-ZEKTORM.mp4
Format : MPEG-4
Format profile : Base Media
Codec ID : isom
File size : 700 MiB
Duration : 1h 49mn
Overall bit rate : 896 Kbps
Subtitles : English, Spanish (Format: VobSub)
Source : DVD NTSC
Encoded date : UTC 2009-02-13 18:51:20

Video
Format : AVC
Format/Info : Advanced Video Codec
Format profile : [email protected]
Format settings, CABAC : Yes
Format settings, ReFrames : 10 frames
Codec ID : avc1
Codec ID/Info : Advanced Video Coding
Duration : 1h 49mn
Bit rate mode : Variable
Bit rate : 813 Kbps
Maximum bit rate : 7530 Kbps
Width : 720 pixels
Height : 368 pixels
Display aspect ratio : 2.35
Frame rate mode : Constant
Frame rate : 23.976 fps
Resolution : 24 bits
Colorimetry : 4:2:0
Scan type : Progressive
Bits/(Pixel*Frame) : 0.128
Stream size : 636 MiB (91%)
Title : Video
Writing library : x264 core 60 r900 a9af942

Audio
Format : AAC
Format/Info : Advanced Audio Codec
Format version : Version 4
Format profile : LC
Format settings, SBR : Yes
Format settings, PS : No
Codec ID : 40
Duration : 1h 49mn
Bit rate mode : Variable
Bit rate : 79.6 Kbps
Maximum bit rate : 105 Kbps
Channel(s) : 2 channels
Channel positions : L R
Sampling rate : 48.0 KHz
Resolution : 16 bits
Stream size : 62.2 MiB (9%)
Title : English
Language : English

Notes : Convert to DVD with Nero

related torrents

Torrent name

health leech seeds Size
 

comments (0)

Main Menu