Drama

Grace AC3 5,1 DVDRip[Eng]2009

  • Download 5x Faster
  • Download torrent
  • Direct Download
  • Rate this torrent +  |  -
Grace AC3 5,1 DVDRip[Eng]2009

Free and Direct Download with Usenet.nl 300GB+ free


Torrent info

Name:Grace AC3 5,1 DVDRip[Eng]2009

Total Size: 1.24 GB

Magnet: Magnet Link

Seeds: 4

Leechers: 3

Stream: Watch Online @ Movie4u

Last Updated: 2010-04-24 15:01:19 (Update Now)

Torrent added: 2009-09-02 10:00:54





Torrent Files List


Grace-AC3-5,1-DVDRip[Eng]2009.avi (Size: 1.24 GB) (Files: 3)

 Grace-AC3-5,1-DVDRip[Eng]2009.avi

1.24 GB

 Grace-AC3-5,1-DVDRip[Eng]2009.txt

2.48 KB

 Torrent downloaded from Demonoid.com.txt

0.05 KB
 

Announce URL: http://inferno.demonoid.com:3419/announce

Torrent description

http://www.imdb.com/title/tt1220213/

http://www.grace-themovie.com/

User Rating:7.1/10 - 386 votes

Drama,Horror,Thriller

Director:Paul Solet

Cast:Jordan Ladd/Gabrielle Rose/Samantha Ferris/Malcolm Stewart, and others.

Plot:
After losing her unborn child, Madeline Matheson insists on carrying the baby to term. Following the delivery, the child miraculously returns to
life with an appetite for human blood. Madeline is faced with a mother's ultimate decision....

Info:

General
Complete name : Grace-AC3-5,1-DVDRip[Eng]2009.avi
Format : AVI
Format/Info : Audio Video Interleave
File size : 1.24 GiB
Duration : 1h 24mn
Overall bit rate : 2 104 Kbps
Writing application : VirtualDubMod 1.5.4.1 (build 2178/release)
Writing library : VirtualDubMod build 2178/release

Video
Format : MPEG-4 Visual
Format profile : [email protected]
Format settings, BVOP : No
Format settings, QPel : No
Format settings, GMC : No warppoints
Format settings, Matrix : Default
Codec ID : XVID
Codec ID/Hint : XviD
Duration : 1h 24mn
Bit rate : 1 646 Kbps
Width : 704 pixels
Height : 304 pixels
Display aspect ratio : 2.35
Frame rate : 23.976 fps
Resolution : 24 bits
Colorimetry : 4:2:0
Scan type : Progressive
Bits/(Pixel*Frame) : 0.321
Stream size : 995 MiB (78%)
Writing library : XviD 1.1.2 (UTC 2006-11-01)

Audio
Format : AC-3
Format/Info : Audio Coding 3
Codec ID : 2000
Duration : 1h 24mn
Bit rate mode : Constant
Bit rate : 448 Kbps
Channel(s) : 6 channels
Channel positions : Front: L C R, Surround: L R, LFE
Sampling rate : 48.0 KHz
Stream size : 271 MiB (21%)
Alignment : Split accross interleaves
Interleave, duration : 42 ms (1.00 video frame)
Interleave, preload duration : 500 ms

Enjoy...

related torrents

Torrent name

health leech seeds Size
 

comments (0)

Main Menu