Action

The City Is Mine 2008 DVDRip XviD VoMiT

  • Download 5x Faster
  • Download torrent
  • Direct Download
  • Rate this torrent +  |  -
The City Is Mine 2008 DVDRip XviD VoMiT

Download FREE And Anonymously


Torrent info

Name:The City Is Mine 2008 DVDRip XviD VoMiT

Total Size: 717.60 MB

Magnet: Magnet Link

Seeds: 0

Leechers: 0

Stream: Watch Full Movie @ Movie4u

Last Updated: 2017-11-17 22:37:28 (Update Now)

Torrent added: 2009-09-02 09:34:27



VPN For Torrents

Torrent Files List


INVITATION!!!.txt (Size: 717.60 MB) (Files: 4)

 INVITATION!!!.txt

8.67 KB

 MediaInfo.nfo

2.16 KB

 vmt-mycity-xvid-sample.avi

17.40 MB

 vmt-mycity-xvid.avi

700.19 MB
 

tracker

leech seeds
 

Torrent description

The.City.Is.Mine.2008.DVDRip.XviD-VoMiT



General
Complete name : The.City.Is.Mine.2008.DVDRip.XviD-VoMiT
Genre : Action/Drama
Format : AVI
Format/Info : Audio Video Interleave
File size : 700 MiB
Duration : 1h 45mn
Overall bit rate : 928 Kbps
Writing application : Nandub v1.0rc2
Writing library : Nandub build 1852/release

Video
Format : MPEG-4 Visual
Format profile : Streaming [email protected]
Format settings, BVOP : Yes
Format settings, QPel : No
Format settings, GMC : No warppoints
Format settings, Matrix : Default
Codec ID : XVID
Codec ID/Hint : XviD
Duration : 1h 45mn
Bit rate : 786 Kbps
Width : 624 pixels
Height : 272 pixels
Display aspect ratio : 2.25
Frame rate : 23.976 fps
Resolution : 24 bits
Colorimetry : 4:2:0
Scan type : Progressive
Bits/(Pixel*Frame) : 0.193
Stream size : 593 MiB (85%)
Writing library : XviD 1.2.1 (UTC 2008-12-04)

Audio
Format : MPEG Audio
Format version : Version 1
Format profile : Layer 3
Codec ID : 55
Codec ID/Hint : MP3
Duration : 1h 45mn
Bit rate mode : Variable
Bit rate : 129 Kbps
Nominal bit rate : 140 Kbps
Channel(s) : 2 channels
Sampling rate : 48.0 KHz
Resolution : 16 bits
Stream size : 97.3 MiB (14%)
Alignment : Aligned on interleaves
Interleave, duration : 24 ms (0.58 video frame)
Writing library : LAME3.92
Encoding settings : ABR

related torrents

Torrent name

health leech seeds Size
 


comments (0)

Main Menu

 

script data-cfasync="false" src="//d2ghscazvn398x.cloudfront.net/?cshgd=690275">