Drama

LONDON TO BRIGHTON [email protected] H 264 AAC MP4 RIP[ENG]

  • Download 5x Faster
  • Download torrent
  • Direct Download
  • Rate this torrent +  |  -

Torrent info

Name:LONDON TO BRIGHTON [email protected] H 264 AAC MP4 RIP[ENG]

Total Size: 798.68 MB

Magnet: Magnet Link

Seeds: 3

Leechers: 7

Stream: Watch Online @ Movie4u

Last Updated: 2010-09-21 06:01:31 (Update Now)

Torrent added: 2009-09-02 09:31:21





Torrent Files List


3305163x.jpg (Size: 798.68 MB) (Files: 3)

 3305163x.jpg

40.57 KB

 l2b.mp4

798.64 MB

 Torrent downloaded from Demonoid.com.txt

0.05 KB
 

Announce URL: http://inferno.demonoid.com:3414/announce

Torrent description

Innocence has nowhere to hide

Written and directed by new British writer-director Paul Andrew Williams, London To Brighton is the critically acclaimed urban thriller that has proved to be one of the most important films in recent British film history. Violent, uncompromising and utterly enthralling, the film features an excellent cast, razor sharp dialogue and an edge of your seat, heart pounding climax.

It's 3:07am and two girls burst into a run down toilet. Joanne is crying her eyes out and her clothing is ripped. Kelly's face is bruised and starting to swell. Duncan Allen lies in his bathroom bleeding to death. Duncan's son, Stuart, has found his father and wants answers. Derek, Kelly's pimp, needs to find Kelly or it will be him who pays. Kelly and Joanne need to get through the next 24 hours alive...

London To Brighton has picked up a raft of awards and nominations including a BAFTA nomination for the Carl Foreman Award for the Most Promising Newcomer for Williams, Most Promising Newcomer, again for Williams, at the Evening Standard British Film Awards, Best Achievement in Production at the British Independent Film Awards (as well as nominations for the Douglas Hickox Award and Raindance Award), the Jury Prize at the Raindance Film Festival, the New Director's Award at the Edinburgh International Film Festival and the Golden Hitchcock at the Dinard British Film Festival.

Format : MPEG-4
Format profile : Base Media / Version 2
Codec ID : mp42
File size : 799 MiB
Duration : 1h 22mn
Overall bit rate : 1 359 Kbps
Encoded date : UTC 2009-06-16 15:19:29
Tagged date : UTC 2009-06-16 19:38:25
Writing application : HandBrake 0.9.3 2008112300

Video
Format : AVC
Format/Info : Advanced Video Codec
Format profile : [email protected]
Format settings, CABAC : Yes
Format settings, ReFrames : 3 frames
Codec ID : avc1
Codec ID/Info : Advanced Video Coding
Duration : 1h 22mn
Bit rate mode : Variable
Bit rate : 1 195 Kbps
Width : 720 pixels
Height : 436 pixels
Display aspect ratio : 2.35
Frame rate mode : Variable
Frame rate : 25.000 fps
Minimum frame rate : 12.500 fps
Maximum frame rate : 166.667 fps
Resolution : 24 bits
Colorimetry : 4:2:0
Scan type : Progressive
Bits/(Pixel*Frame) : 0.152
Stream size : 703 MiB (88%)
Writing library : x264 core 65


Audio
Format : AAC
Format/Info : Advanced Audio Codec
Format version : Version 4
Format profile : LC
Format settings, SBR : No
Codec ID : 40
Duration : 1h 22mn
Bit rate mode : Variable
Bit rate : 160 Kbps
Maximum bit rate : 261 Kbps
Channel(s) : 2 channels
Channel positions : L R
Sampling rate : 48.0 KHz
Resolution : 16 bits
Stream size : 94.0 MiB (12%)
Language : English
Encoded date : UTC 2009-06-16 15:19:30
Tagged date : UTC 2009-06-16 19:38:15

related torrents

Torrent name

health leech seeds Size
 

comments (0)

Main Menu