Drama

Linewatch 2008 MULTiSUBS DVDRip XviD Cocc

  • Download 5x Faster
  • Download torrent
  • Direct Download
  • Rate this torrent +  |  -
Linewatch 2008 MULTiSUBS DVDRip XviD Cocc

Anonymous and Direct Download 300GB+ free


Torrent info

Name:Linewatch 2008 MULTiSUBS DVDRip XviD Cocc

Total Size: 712.90 MB

Magnet: Magnet Link

Seeds: 0

Leechers: 0

Stream: Watch Online @ Movie4u

Last Updated: 2010-05-18 18:20:37 (Update Now)

Torrent added: 2009-09-02 09:19:19




Torrent Files List


Linewatch.2008.MULTiSUBS.DVDRip.XviD-Cocc.avi (Size: 712.90 MB) (Files: 2)

 Linewatch.2008.MULTiSUBS.DVDRip.XviD-Cocc.avi

700.23 MB

 Sub.rar

12.68 MB
 

Announce URL: http://vip.tracker.thepiratebay.org:80/announce

Torrent description

Linewatch (2008)

Michael Dixon is a seasoned agent working linewatch on the US/Mexico
Border. Well respected by his peers at US Border Patrol, and well
loved by his family (wife Angela and 5 year old daughter Emily),
Michael's world is suddenly threatened by secrets from his past.
Michael was not always the respectable family man he now has become -
he was a vicious Los Angeles gang member who turned his back on the
gang and his own brutal ways. But no one can quit the gang, so when a
chance encounter leads the gang to Michael in New Mexico, Michael is
forced to find a way to protect his family, even if it means helping
the psychotic gang leader Drake smuggle a truckload
of drugs across the border.



Subtitles; Eng,Sv,Fi,No,Dk,Ice,Esp,Por,Cz,Pl,Arab,Bu,
Cr,Est,Gr,Heb,Hin,Slovak,Slov,Turk



IMDb http://www.imdb.com/title/tt1047832/





General
Complete name : Linewatch.2008.MULTiSUBS.DVDRip.XviD-Cocc.avi
Format : AVI
Format/Info : Audio Video Interleave
File size : 700 MiB
Duration : 1h 25mn
Overall bit rate : 1 141 Kbps

Video
Format : MPEG-4 Visual
Format profile : Streaming [email protected]
Format settings, BVOP : Yes
Format settings, QPel : No
Format settings, GMC : No warppoints
Format settings, Matrix : Default
Codec ID : XVID
Codec ID/Hint : XviD
Duration : 1h 25mn
Bit rate : 963 Kbps
Width : 656 pixels
Height : 272 pixels
Display aspect ratio : 2.412
Frame rate : 25.000 fps
Resolution : 24 bits
Colorimetry : 4:2:0
Scan type : Progressive
Bits/(Pixel*Frame) : 0.216
Stream size : 591 MiB (84%)
Writing library : XviD 1.2.0.dev47 (UTC 2006-11-01)

Audio
Format : MPEG Audio
Format version : Version 1
Format profile : Layer 3
Codec ID : 55
Codec ID/Hint : MP3
Duration : 1h 25mn
Bit rate mode : Variable
Bit rate : 165 Kbps
Minimum bit rate : 128 Kbps
Channel(s) : 2 channels
Sampling rate : 48.0 KHz
Resolution : 16 bits
Stream size : 101 MiB (14%)
Alignment : Aligned on interleaves
Interleave, duration : 24 ms (0.60 video frame)
Interleave, preload duration : 107 ms
Writing library : LAME3.92
Encoding settings : VBR (rh)

Created with: DP MediaInfo version 1.05 (c) by Dirk Paehl
MediaInfoLib - v0.7.7.6














related torrents

Torrent name

health leech seeds Size
 


comments (0)

Main Menu