Drama

Lilja 4 ever, [Xvid Ita Ac3 Rus Mp3]][ scambioetico org]

  • Download 5x Faster
  • Download torrent
  • Direct Download
  • Rate this torrent +  |  -
Lilja 4 ever, [Xvid Ita Ac3 Rus Mp3]][ scambioetico org]

Anonymous and Free Direct Download 300GB+


Torrent info

Name:Lilja 4 ever, [Xvid Ita Ac3 Rus Mp3]][ scambioetico org]

Total Size: 1.09 GB

Magnet: Magnet Link

Seeds: 0

Leechers: 1

Stream: Watch Online @ Movie4u

Last Updated: 2015-09-01 05:19:35 (Update Now)

Torrent added: 2009-09-02 09:18:45



VPN For Torrents

Torrent Files List


Lilja 4-ever.avi (Size: 1.09 GB) (Files: 1)

 Lilja 4-ever.avi

1.09 GB
 

tracker

leech seeds
 

Torrent description

Lilja 4-ever, [Xvid - Ita Ac3 Rus Mp3]][www.tntvillage.scambioetico.org]

Scheda del film

Titolo:Lilja 4-ever
Titolo originale:Lilja 4-ever
Nazionalità:Svezia
Anno:2002
Genere:Drammatico
Regia:Lukas Moodysson
Produzione:Lars Jönsson
Distribuzione: Mik
Data di uscita:Settembre 2002 (Festival di Venezia)
18 Giugno 2004 (cinema)

Cast

Oksana Akinshina, Artiom Bogucharskij, Ljubov Agapova, Elina Benenson

Scheda tecnica (Mediainfo)

General
Complete name : Lilja 4-ever.avi
Format : AVI
Format/Info : Audio Video Interleave
File size : 1.09 GiB
Duration : 1h 44mn
Overall bit rate : 1 493 Kbps

Video
Format : MPEG-4 Visual
Format profile : Streaming [email protected]
Format settings, BVOP : Yes
Format settings, QPel : No
Format settings, GMC : No warppoints
Format settings, Matrix : Default
Codec ID : XVID
Codec ID/Hint : XviD
Duration : 1h 44mn
Bit rate : 1 146 Kbps
Width : 624 pixels
Height : 336 pixels
Display aspect ratio : 1.857
Frame rate : 25.000 fps
Resolution : 24 bits
Colorimetry : 4:2:0
Scan type : Progressive
Bits/(Pixel*Frame) : 0.219
Stream size : 857 MiB (77%)
Writing library : XviD 1.1.2 (UTC 2006-11-01)

Audio #1
Format : AC-3
Format/Info : Audio Coding 3
Codec ID : 2000
Duration : 1h 44mn
Bit rate mode : Constant
Bit rate : 192 Kbps
Channel(s) : 2 channels
Channel positions : L R
Sampling rate : 48.0 KHz
Stream size : 144 MiB (13%)
Alignment : Aligned on interleaves
Interleave, duration : 64 ms (1.60 video frames)
Interleave, preload duration : 192 ms
Title : Proyecto T80 2_0ch 192Kbps DELAY 0ms

Audio #2
Format : MPEG Audio
Format version : Version 1
Format profile : Layer 3
Codec ID : 55
Codec ID/Hint : MP3
Duration : 1h 44mn
Bit rate mode : Variable
Bit rate : 139 Kbps
Minimum bit rate : 144 Kbps
Channel(s) : 2 channels
Sampling rate : 48.0 KHz
Resolution : 16 bits
Stream size : 104 MiB (9%)
Alignment : Aligned on interleaves
Interleave, duration : 24 ms (0.60 video frame)
Interleave, preload duration : 190 ms
Title : swe 144
Writing library : LAME3.97
Encoding settings : ABR



related torrents

Torrent name

health leech seeds Size
 


comments (0)

Main Menu