Drama

Four Brothers 2005 DvDrip marxus

  • Download 5x Faster
  • Download torrent
  • Direct Download
  • Rate this torrent +  |  -
Four Brothers 2005 DvDrip marxus

Anonymous and free Direct Download 300GB+


Torrent info

Name:Four Brothers 2005 DvDrip marxus

Total Size: 700.00 MB

Magnet: Magnet Link

Seeds: 1

Leechers: 0

Stream: Watch Online @ Movie4u

Last Updated: 2011-03-15 19:57:46 (Update Now)

Torrent added: 2009-09-02 09:09:11



SpyOFF VPN

Torrent Files List


Four Brothers 2005 DvDrip - marxus.avi (Size: 700.00 MB) (Files: 2)

 Four Brothers 2005 DvDrip - marxus.avi

700.00 MB

 Torrent downloaded from Demonoid.com.txt

0.05 KB
 

Announce URL: http://tracker.publicbt.com/announce

Torrent description

General
Complete name : Four Brothers 2005 DvDrip - marxus.avi
Format : AVI
Format/Info : Audio Video Interleave
File size : 700 MiB
Duration : 1h 44mn
Overall bit rate : 938 Kbps
Writing application : VirtualDubMod 1.5.4.1 (build 2178/release)
Writing library : VirtualDubMod build 2178/release

Video
ID : 0
Format : MPEG-4 Visual
Format profile : [email protected]
Format settings, BVOP : Yes
Format settings, QPel : No
Format settings, GMC : No warppoints
Format settings, Matrix : Custom
Codec ID : XVID
Codec ID/Hint : XviD
Duration : 1h 44mn
Bit rate : 812 Kbps
Width : 608 pixels
Height : 256 pixels
Display aspect ratio : 2.35
Frame rate : 25.000 fps
Resolution : 24 bits
Colorimetry : 4:2:0
Scan type : Progressive
Bits/(Pixel*Frame) : 0.209
Stream size : 606 MiB (87%)
Writing library : XviD 1.2.0.dev47 (UTC 2006-11-01)

Audio
ID : 1
Format : MPEG Audio
Format version : Version 1
Format profile : Layer 3
Codec ID : 55
Codec ID/Hint : MP3
Duration : 1h 44mn
Bit rate mode : Variable
Bit rate : 113 Kbps
Nominal bit rate : 128 Kbps
Channel(s) : 2 channels
Sampling rate : 48.0 KHz
Resolution : 16 bits
Stream size : 84.6 MiB (12%)
Alignment : Aligned on interleaves
Interleave, duration : 24 ms (0.60 video frame)
Interleave, preload duration : 162 ms
Writing library : LAME3.97
Encoding settings : -m j -V 4 -q 2 -lowpass 17 --abr 128
Language : English

related torrents

Torrent name

health leech seeds Size

Four Brothers (2005)

0 1 702.21 MB 0
 


comments (0)

Main Menu