Drama

Forrest Gump [Eng,Ger,Cze] [emandoz 1 gig rip]

  • Download 5x Faster
  • Download torrent
  • Direct Download
  • Rate this torrent +  |  -
Forrest Gump [Eng,Ger,Cze] [emandoz 1 gig rip]

Free and Direct Download with Usenet.nl 300GB+ free


Torrent info

Name:Forrest Gump [Eng,Ger,Cze] [emandoz 1 gig rip]

Total Size: 1.00 GB

Magnet: Magnet Link

Seeds: 0

Leechers: 0

Stream: Watch Online @ Movie4u

Last Updated: 2012-09-03 08:24:37 (Update Now)

Torrent added: 2009-09-02 09:08:07





Torrent Files List


forrest_gump.mkv (Size: 1.00 GB) (Files: 4)

 forrest_gump.mkv

0.98 GB

 forrest_gump.nfo

3.79 KB

 forrest_gump_subs.rar

12.93 MB

 what_is_a_emandoz_1gig_rip.nfo

1.18 KB
 

Announce URL:

Torrent description

emandoz presents:

Forrest Gump [Eng,Ger,Cze] [emandoz 1-gig rip]



Forrest Gump
Audio: English, German, Czech
Subs included
Source: PAL DVD

--------------------------------------------------------------------
Forrest Gump (1994)

Video
ID : 1
Format : AVC
Format/Info : Advanced Video Codec
Format profile : [email protected]
Format settings, CABAC : Yes
Format settings, ReFrames : 5 frames
Muxing mode : Container [email protected]
Codec ID : V_MPEG4/ISO/AVC
Duration : 2h 16mn
Nominal bit rate : 548 Kbps
Width : 718 pixels
Height : 422 pixels
Display aspect ratio : 2.419
Original display aspect ratio : 2.420
Frame rate : 25.000 fps
Resolution : 24 bits
Colorimetry : 4:2:0
Scan type : Progressive
Bits/(Pixel*Frame) : 0.072
Writing library : x264 core 65
Encoding settings : cabac=1 / ref=5 / deblock=1:0:0 / analyse=0x3:0x133 / me=umh / subme=9 / psy_rd=1.0:1.0 / mixed_ref=1 / me_range=16 / chroma_me=1 / trellis=2 / 8x8dct=1 / cqm=0 / deadzone=21,11 / chroma_qp_offset=-4 / threads=1 / nr=0 / decimate=1 / mbaff=0 / bframes=6 / b_pyramid=1 / b_adapt=1 / b_bias=0 / direct=3 / wpredb=1 / keyint=250 / keyint_min=25 / scenecut=40 / rc=2pass / bitrate=548 / ratetol=1.0 / qcomp=0.60 / qpmin=10 / qpmax=51 / qpstep=4 / cplxblur=20.0 / qblur=0.5 / ip_ratio=1.40 / pb_ratio=1.30 / aq=1:1.00

Audio #1
ID : 2
Format : AAC
Format/Info : Advanced Audio Codec
Format version : Version 4
Format profile : LC
Format settings, SBR : No
Codec ID : A_AAC
Duration : 2h 16mn
Channel(s) : 6 channels
Channel positions : Front: L C R, Rear: L R, LFE
Sampling rate : 48.0 KHz
Resolution : 16 bits
Language : English
Bitrate : 256 kbps

Audio #2
ID : 3
Format : MPEG Audio
Format version : Version 1
Format profile : Layer 3
Codec ID : A_MPEG/L3
Codec ID/Hint : MP3
Duration : 2h 16mn
Bit rate mode : Constant
Bit rate : 128 Kbps
Channel(s) : 2 channels, Dolby Surround ProLogic II
Sampling rate : 48.0 KHz
Resolution : 16 bits
Stream size : 125 MiB (12%)
Writing library : LAME3.98
Language : German

Audio #3
ID : 4
Format : Vorbis
Format settings, Floor : 1
Codec ID : A_VORBIS
Duration : 2h 16mn
Bit rate mode : Constant
Bit rate : 86.0 Kbps
Channel(s) : 2 channels, Dolby Surround ProLogic II
Sampling rate : 48.0 KHz
Stream size : 83.8 MiB (8%)
Writing library : aoTuV Beta 5 (UTC 2006-10-24)
Language : Czech

Subs
German, English for the hearing impaired, English, Polish, Czech, Turkish, Hungarian, English commentary, German commentary
--------------------------------------------------------------------

related torrents

Torrent name

health leech seeds Size
 

comments (0)

Main Menu