Drama

Leonera 2008 DVDRIP XviD ZEKTORM

  • Download 5x Faster
  • Download torrent
  • Direct Download
  • Rate this torrent +  |  -
Leonera 2008 DVDRIP XviD ZEKTORM

Anonymous and Free Direct Download 300GB+


Torrent info

Name:Leonera 2008 DVDRIP XviD ZEKTORM

Total Size: 710.06 MB

Magnet: Magnet Link

Seeds: 14

Leechers: 5

Stream: Watch Online @ Movie4u

Last Updated: 2011-09-11 18:52:05 (Update Now)

Torrent added: 2009-09-02 09:03:13



VPN For Torrents

Torrent Files List


Leonera.2008.DVDRIP.XviD-ZEKTORM.avi (Size: 710.06 MB) (Files: 4)

 Leonera.2008.DVDRIP.XviD-ZEKTORM.avi

700.72 MB

 READ.hlp

11.27 KB

 Subs

  Leonera.2008.DVDRIP.XviD-ZEKTORM.idx

108.10 KB

  Leonera.2008.DVDRIP.XviD-ZEKTORM.sub

9.22 MB
 

Announce URL: http://tracker.torrentbox.com:2710/announce

Torrent description

Title : Leonera
Year : 2008
Genre : Drama
iMDB URL : http://www.imdb.com/title/tt1022606/
Awards : 7 wins & 1 nomination

Complete name : Leonera.2008.DVDRIP.XviD-ZEKTORM.avi
Format : AVI
File size : 701 MiB
Duration : 1h 53mn
Overall bit rate : 867 Kbps
Subtitles : English, Spanish (Format: VobSub)
Source : DVD NTSC

Video
Format : MPEG-4 Visual
Format profile : Streaming [email protected]
Codec ID : DX50
Codec ID/Hint : DivX 5
Duration : 1h 53mn
Bit rate : 732 Kbps
Width : 720 pixels
Height : 320 pixels
Display aspect ratio : 2.25
Frame rate : 23.976 fps
Resolution : 24 bits
Colorimetry : 4:2:0
Scan type : Progressive
Bits/(Pixel*Frame) : 0.133
Stream size : 592 MiB (84%)
Writing library : XviD

Audio
Format : MPEG Audio
Format version : Version 1
Format profile : Layer 3
Codec ID : 55
Codec ID/Hint : MP3
Duration : 1h 52mn
Bit rate mode : Constant
Bit rate : 128 Kbps
Minimum bit rate : 128 Kbps
Channel(s) : 2 channels
Sampling rate : 48.0 KHz
Resolution : 16 bits
Stream size : 103 MiB (15%)
Language : Spanish
Writing library : LAME3.98r
Encoding settings : CBR

related torrents

Torrent name

health leech seeds Size
 


comments (0)

Main Menu