Drama

FLOOD [2007]@H 264 RIP BY KIDZ&J T R

  • Download 5x Faster
  • Download torrent
  • Direct Download
  • Rate this torrent +  |  -
FLOOD [2007]@H 264 RIP BY KIDZ&J T R

Free and Direct Download with Usenet.nl 300GB+ free


Torrent info

Name:FLOOD [2007]@H 264 RIP BY KIDZ&J T R

Total Size: 691.70 MB

Magnet: Magnet Link

Seeds: 0

Leechers: 0

Stream: Watch Online @ Movie4u

Last Updated: 2010-09-22 08:53:53 (Update Now)

Torrent added: 2009-09-02 09:03:02





Torrent Files List


3441264x.jpg (Size: 691.70 MB) (Files: 3)

 3441264x.jpg

43.83 KB

 flood.mp4

691.66 MB

 Torrent downloaded from Demonoid.com-1.txt

0.05 KB
 

Announce URL: http://inferno.demonoid.com:3408/announce

Torrent description

Timely yet terrifying, The Flood predicts the unthinkable. When a raging storm coincides with high tide it unleashes a colossal tidal surge, which travels mercilessly down England`s East Coast and into the River Thames. Overwhelming the Barrier, torrents of water pour into the city. The lives of millions of Londoners are at stake. Top marine engineer, Rob and his father Leonard Morrison rush to the aid of his ex-wife and Barrier expert, Sam to try to save a city on the brink of annihilation.

General
Complete name : C:\Users\joker\Documents\FLOOD-[2007]@H.264 RIP BY KIDZ&J.T.R\flood.mp4
Format : MPEG-4
Format profile : Base Media / Version 2
Codec ID : mp42
File size : 692 MiB
Duration : 1h 46mn
Overall bit rate : 909 Kbps
Encoded date : UTC 2009-03-07 07:26:49
Tagged date : UTC 2009-03-07 12:48:54
Writing application : HandBrake 0.9.3 2008112300

Video
Format : AVC
Format/Info : Advanced Video Codec
Format profile : [email protected]
Format settings, CABAC : Yes
Format settings, ReFrames : 3 frames
Codec ID : avc1
Codec ID/Info : Advanced Video Coding
Duration : 1h 46mn
Bit rate mode : Variable
Bit rate : 746 Kbps
Nominal bit rate : 758 Kbps
Width : 718 pixels
Height : 572 pixels
Display aspect ratio : 16/9
Frame rate mode : Variable
Frame rate : 25.000 fps
Minimum frame rate : 12.500 fps
Maximum frame rate : 25.000 fps
Resolution : 24 bits
Colorimetry : 4:2:0
Scan type : Progressive
Bits/(Pixel*Frame) : 0.073
Stream size : 567 MiB (82%)
Writing library : x264 core 65
Encoding settings : cabac=1 / ref=2 / deblock=1:-2:-1 / analyse=0x1:0x131 / me=umh / subme=9 / psy_rd=1.0:0.0 / mixed_ref=1 / me_range=16 / chroma_me=1 / trellis=0 / 8x8dct=0 / cqm=0 / deadzone=21,11 / chroma_qp_offset=-2 / threads=3 / nr=0 / decimate=1 / mbaff=0 / bframes=3 / b_pyramid=1 / b_adapt=1 / b_bias=0 / direct=3 / wpredb=1 / keyint=250 / keyint_min=25 / scenecut=40(pre) / rc=abr / bitrate=758 / ratetol=1.0 / qcomp=0.60 / qpmin=10 / qpmax=51 / qpstep=4 / ip_ratio=1.40 / pb_ratio=1.30 / aq=1:1.00
Encoded date : UTC 2009-03-07 07:26:49
Tagged date : UTC 2009-03-07 12:48:54

Audio
Format : AAC
Format/Info : Advanced Audio Codec
Format version : Version 4
Format profile : LC
Format settings, SBR : No
Codec ID : 40
Duration : 1h 46mn
Bit rate mode : Variable
Bit rate : 160 Kbps
Maximum bit rate : 221 Kbps
Channel(s) : 2 channels
Channel positions : L R
Sampling rate : 48.0 KHz
Resolution : 16 bits
Stream size : 122 MiB (18%)
Language : English
Encoded date : UTC 2009-03-07 07:26:49
Tagged date : UTC 2009-03-07 12:48:50

related torrents

Torrent name

health leech seeds Size
 

comments (0)

Main Menu