Other

The Unseen Beatles][xvid][hectorbusinspector]

  • Download 5x Faster
  • Download torrent
  • Direct Download
  • Rate this torrent +  |  -
The Unseen Beatles][xvid][hectorbusinspector]

Free and Direct Download with Usenet.nl 300GB+ free


Torrent info

Name:The Unseen Beatles][xvid][hectorbusinspector]

Total Size: 700.22 MB

Magnet: Magnet Link

Seeds: 3

Leechers: 0

Stream: Watch Online @ Movie4u

Last Updated: 2011-01-01 11:40:45 (Update Now)

Torrent added: 2009-09-02 08:59:58





Torrent Files List


The Beatles (Size: 700.22 MB) (Files: 4)

 The Beatles

  The Beatles.avi

700.18 MB

 51RJoIdTXQL._SS500_[1].jpg

41.62 KB

 The Unseen Beatles.txt

4.65 KB

 tracked_by_h33t_com.txt

0.02 KB
 

Announce URL: http://tracker.openbittorrent.com/announce

Torrent description

THE UNSEEN BEATLES
BBC - Warner / 65 minutes / Region One / Out Now

cast
John Lennon, Paul McCartney, George Harrison, Ringo Starr

By the time the Beatles conquered America in 1964 they really were the most popular band in the world, at one stage occupying slots 1-5 on the Billboard
charts at the same time! Remember too that this was in the days before MTV and music videos, the only way that bands had to promote their music was the
records, occasaional TV appearances and relentless touring. Something the Beatles were masters of, some 1400 concerts by 1966, the year they decided they
had had enough. 1966 had been a year of death threats, scary plane flights, ill judged remarks by Lennon and the band were quite simply tired of the hugeness of it all.

Given the fact that they did tour so much in their prime years there is surprisingly little footage of the boys on the road, no doubt a case of what
went on the tour stayed on the tour, one of the major reasons why this new BBC Warners release is so welcome is because The Unseen Beatles offers a
whole flotilla of rare archive footage, vintage photographs and interviews with the people who were there with the boys.

Its an amazing story, the Beatles became so disillusioned by the constant touring, people wanting several pieces of them, girls screaming so loud that
they couldn't even hear themselves play that it very nearly pulled the band apart. With its wealth of wonderful and rare footage this is a great look
at the band in its prime, changing the face of popular music every time they recorded and inventing the modern rock concert along the way.

Extras include extended interviews, a great photo gallery and some highly choice moments of the band performing in Jersey.
____________________________________________________________________________________________________________________________________________________________________________

General
Complete name : The Unseen Beatles][xvid][hectorbusinspector]\The Beatles\The Beatles.avi
Format : AVI
Format/Info : Audio Video Interleave
File size : 700 MiB
Duration : 49mn 3s
Overall bit rate : 1 996 Kbps
Writing application : VirtualDubMod 1.5.4.1 (build 2178/release)
Writing library : VirtualDubMod build 2178/release

Video
ID : 0
Format : MPEG-4 Visual
Format profile : [email protected]
Format settings, BVOP : Yes
Format settings, QPel : No
Format settings, GMC : No warppoints
Format settings, Matrix : Custom
Codec ID : XVID
Codec ID/Hint : XviD
Duration : 49mn 3s
Bit rate : 1 860 Kbps
Width : 656 pixels
Height : 368 pixels
Display aspect ratio : 16:9
Frame rate : 25.000 fps
Resolution : 24 bits
Colorimetry : 4:2:0
Scan type : Progressive
Bits/(Pixel*Frame) : 0.308
Stream size : 653 MiB (93%)
Writing library : XviD 1.2.1 (UTC 2008-12-04)

Audio
ID : 1
Format : MPEG Audio
Format version : Version 1
Format profile : Layer 3
Codec ID : 55
Codec ID/Hint : MP3
Duration : 49mn 3s
Bit rate mode : Constant
Bit rate : 128 Kbps
Channel(s) : 2 channels
Sampling rate : 48.0 KHz
Resolution : 16 bits
Stream size : 44.9 MiB (6%)
Alignment : Aligned on interleaves
Interleave, duration : 80 ms (2.00 video frames)
Interleave, preload duration : 504 ms
Writing library : LAME3.98r
Encoding settings : -m j -V 4 -q 2 -lowpass 17 -b 128
Language : English
______________________________________________________________________________________________________________________________________________________________________________

Avi

Art

Info

Keep This Torrent Alive Please By Seeding.
______________________________________________________________________________________________________________________________________________________________________________





related torrents

Torrent name

health leech seeds Size
 

comments (0)

Main Menu