Drama

Flash of Genius 2008 DVDRIP XviD ZEKTORM

  • Download 5x Faster
  • Download torrent
  • Direct Download
  • Rate this torrent +  |  -
Flash of Genius 2008 DVDRIP XviD ZEKTORM

Anonymous and Direct Download 300GB+ free


Torrent info

Name:Flash of Genius 2008 DVDRIP XviD ZEKTORM

Total Size: 721.89 MB

Magnet: Magnet Link

Seeds: 0

Leechers: 0

Stream: Watch Online @ Movie4u

Last Updated: 2010-09-22 11:16:38 (Update Now)

Torrent added: 2009-09-02 08:57:50




Torrent Files List


Flash.of.Genius.2008.DVDRIP.XviD-ZEKTORM.avi (Size: 721.89 MB) (Files: 4)

 Flash.of.Genius.2008.DVDRIP.XviD-ZEKTORM.avi

701.04 MB

 READ.hlp

11.42 KB

 Subs

  Flash.of.Genius.2008.DVDRIP.XviD-ZEKTORM.idx

246.28 KB

  Flash.of.Genius.2008.DVDRIP.XviD-ZEKTORM.sub

20.60 MB
 

Announce URL: http://eztv.tracker.thepiratebay.org:80/announce

Torrent description

Title : Flash of Genius
Year : 2008
Genre : Drama
iMDB Rate : User Rating: 6.7/10 529 votes
iMDB URL : http://www.imdb.com/title/tt1054588/

Complete name : Flash.of.Genius.2008.DVDRIP.XviD-ZEKTORM.avi
Format : AVI
File size : 701 MiB
Duration : 1h 59mn
Overall bit rate : 820 Kbps
Subtitles : English, Spanish, French (Format: VobSub)
Source : DVD NTSC

Video
Format : MPEG-4 Visual
Format profile : Streaming [email protected]
Codec ID : DX50
Codec ID/Hint : DivX 5
Duration : 1h 59mn
Bit rate : 685 Kbps
Width : 720 pixels
Height : 304 pixels
Display aspect ratio : 2.35
Frame rate : 23.976 fps
Resolution : 24 bits
Colorimetry : 4:2:0
Scan type : Progressive
Bits/(Pixel*Frame) : 0.131
Stream size : 586 MiB (84%)
Writing library : XviD

Audio
Format : MPEG Audio
Format version : Version 1
Format profile : Layer 3
Codec ID : 55
Codec ID/Hint : MP3
Duration : 1h 59mn
Bit rate mode : Constant
Bit rate : 128 Kbps
Minimum bit rate : 128 Kbps
Channel(s) : 2 channels
Sampling rate : 48.0 KHz
Resolution : 16 bits
Stream size : 109 MiB (16%)
Writing library : LAME3.9
Encoding settings : CBR

related torrents

Torrent name

health leech seeds Size
 


comments (0)

Main Menu