Action

Resident Evil[2009]DvDrip LW [Bit Byte]

  • Download 5x Faster
  • Download torrent
  • Direct Download
  • Rate this torrent +  |  -
Resident Evil[2009]DvDrip LW [Bit Byte]

Anonymous and Direct Download 300GB+ free


Torrent info

Name:Resident Evil[2009]DvDrip LW [Bit Byte]

Total Size: 703.84 MB

Magnet: Magnet Link

Seeds: 1

Leechers: 37

Stream: Watch Online @ Movie4u

Last Updated: 0000-00-00 00:00:00 (Update Now)

Torrent added: 2009-09-02 08:34:29




Torrent Files List


Cover (Size: 703.84 MB) (Files: 6)

 Cover

  Cover.jpg

60.38 KB

 Info

  Movie Info.nfo

4.20 KB

  Movie Info.txt

3.03 KB

 Movie

  Resident Evil[2009]DvDrip-LW.avi

703.77 MB

 Trackers

  Torrent_downloaded_from_Demonoid.com.txt

0.05 KB

  tracked_by_h33t_com.txt

0.02 KB
 

Announce URL: http://www.h33t.com:3310/announce

Torrent description

) (`-. (`\ .-\') /` ) (`-.
( OO ). `.( OO ),\' ( OO ).
(_/. \_)-.-\'),-----. ,--. ,--./ .--. .-\'),-----.(_/. \_)-.
\ `.\' ( OO\' .-. \'| |.-\') | | | ( OO\' .-. \'\ `.\' /
\ /Y | | | || | OO )| | | |,/ | | | | \ /\
\ \ \_) | |\| || |`-\' || |.\'.| |_)_) | |\| | \ \ |
.\' \_)\ | | | (| \'---.\'| | \ | | | | .\' \_)
/ .\'. \ `\' \'-\' \'| | | ,\'. | `\' \'-\' \'/ .\'. \
\'--\' \'--\' `-----\' `------\' \'--\' \'--\' `-----\'\'--\' \'--\'


ßßßßßßßßßßßßßßßßßßßßßßßßßßßßßßßßßßßßßßßßßßßßßßßßßßßßßßßßßßßßßßßßßßßßßß

Û°°°°°°°°°°°°°°°°°°°°°°°°°°°°°°Û
ÛÛ Resident Evil[2009]DvDrip-LW ÛÛ
Û°°°°°°°°°°°°°°°°°°°°°°°°°°°°°°Û

File Name : Resident Evil[2009]DvDrip-LW
Type : Movie
Format : AVI
File Size : 703 MB
Duration : 01:40:31
Language : English
Source : DvD
Subtitles : None
Genre : Action | Horror | Sci-Fi | Thriller
IMDB Link : http://www.imdb.com/title/tt0120804/
IMDB Rating : 6.3/10
IMDB Votes : 58,652 Votes
ÜÜÜÜÜÜÜÜÜÜÜÜÜÜÜÜÜÜÜÜÜÜÜÜÜÜÜÜÜÜÜÜÜÜÜÜÜÜÜÜÜÜÜÜÜÜÜÜÜÜÜÜÜÜÜÜÜÜÜÜÜÜÜÜÜÜÜÜÜÜ

Û°°°°°°°°°°°°°°°°°°°°°°°°Û
ÛÛ Video Info ÛÛ
Û°°°°°°°°°°°°°°°°°°°°°°°°Û

Format : MPEG-4 Visual
Format profile : Streaming [email protected]
Format settings, BVOP : Yes
Format settings, QPel : No
Format settings, GMC : No warppoints
Format settings, Matrix : Custom
Codec ID : XVID
Codec ID/Hint : XviD
Duration : 1h 40mn
Bit rate : 860 Kbps
Width : 624 pixels
Height : 336 pixels
Display aspect ratio : 1.857
Frame rate : 23.976 fps
Resolution : 24 bits
Colorimetry : 4:2:0
Scan type : Progressive
Bits/(Pixel*Frame) : 0.171
Stream size : 618 MiB (88%)
Writing library : XviD 1.2.1
ÜÜÜÜÜÜÜÜÜÜÜÜÜÜÜÜÜÜÜÜÜÜÜÜÜÜÜÜÜÜÜÜÜÜÜÜÜÜÜÜÜÜÜÜÜÜÜÜÜÜÜÜÜÜÜÜÜÜÜÜÜÜÜÜÜÜÜÜÜÜ

Û°°°°°°°°°°°°°°°°°°°°°°°°Û
ÛÛ Sound Info ÛÛ
Û°°°°°°°°°°°°°°°°°°°°°°°°Û

Format : MPEG Audio
Format version : Version 1
Format profile : Layer 3
Codec ID : 55
Codec ID/Hint : MP3
Duration : 1h 40mn
Bit rate mode : Constant
Bit rate : 112 Kbps
Minimum bit rate : 112 Kbps
Channel(s) : 2 channels
Sampling rate : 44.1 KHz
Resolution : 16 bits
Stream size : 80.5 MiB (11%)
Alignment : Split accross interleaves
Interleave, duration : 83 ms (2.00 video frames)
Interleave, preload duration : 500 ms
Writing library : LAME3.98r
Encoding settings : CBR
ÜÜÜÜÜÜÜÜÜÜÜÜÜÜÜÜÜÜÜÜÜÜÜÜÜÜÜÜÜÜÜÜÜÜÜÜÜÜÜÜÜÜÜÜÜÜÜÜÜÜÜÜÜÜÜÜÜÜÜÜÜÜÜÜÜÜÜÜÜÜ

Û°°°°°°°°°°°°°°°°°°°°°°°°Û
ÛÛ Plot ÛÛ
Û°°°°°°°°°°°°°°°°°°°°°°°°Û

A virus has leaked out in a top-secret facility,
turning all resident researchers into ravenous
zombies and their lab animals into mutated hounds
from hell. Time to clean up, so the government
sends in an elite military task force led by Alice
(Milla Jovovich) and Rain (Michelle Rodriguez) to
contain the outbreak. But they have just 3 hours
before the pathogen becomes airborne and infects
the world. …

Starring: Milla Jovovich, Michelle Rodriguez

Director: Paul Anderson
ÜÜÜÜÜÜÜÜÜÜÜÜÜÜÜÜÜÜÜÜÜÜÜÜÜÜÜÜÜÜÜÜÜÜÜÜÜÜÜÜÜÜÜÜÜÜÜÜÜÜÜÜÜÜÜÜÜÜÜÜÜÜÜÜÜÜÜÜÜÜ

related torrents

Torrent name

health leech seeds Size
 


comments (0)

Main Menu