Drama

La Buena Vida (2008) DVDRip Xvid Ac3 5 1 lletaif

  • Download 5x Faster
  • Download torrent
  • Direct Download
  • Rate this torrent +  |  -
La Buena Vida (2008) DVDRip Xvid Ac3 5 1 lletaif

Free and Direct Download with Usenet.nl 300GB+ free


Torrent info

Name:La Buena Vida (2008) DVDRip Xvid Ac3 5 1 lletaif

Total Size: 1.37 GB

Magnet: Magnet Link

Seeds: 0

Leechers: 0

Stream: Watch Online @ Movie4u

Last Updated: 2010-09-29 17:12:02 (Update Now)

Torrent added: 2009-09-02 08:33:10





Torrent Files List


La.Buena.Vida.(2008).DVDRip.Xvid.Ac3.5.1.lletaif.avi (Size: 1.37 GB) (Files: 1)

 La.Buena.Vida.(2008).DVDRip.Xvid.Ac3.5.1.lletaif.avi

1.37 GB
 

Announce URL: http://open.tracker.thepiratebay.org/announce

Torrent description

Name:La Buena Vida, Aka The Good Life (Chile/2008)

Director: Andrés Wood

Writers: Rodrigo Bazaes (idea),Mamoun Hassan (writer)

Awards: Havana Film Festival, Mention Andrés Wood

Plot: Santiago 2008. Teresa, Edmundo, Mário, and Patrícia are four city people whose lives cross each other mid horns blaring, brakes screeching, and the sounding of automobile burglar alarms, but that rarely draw close. Enveloped by the urban whirl, each pursues a dream: Teresa is a psychologist who endeavors to save lives; Edmundo, a hairdresser whose dream it is to purchase a car; Mário would like to join the Philarmonic. Patrícia survives. Each yearns for something that seems accessible enough but that nobody ever attains. What they do find is unexpected.

imdb: http://www.imdb.com/title/tt1327798/

Cast:

Francisco Acuña ... Lucas
Jorge Alis ... Raúl
Daniel Antivilo ... Ramón
Alfredo Castro ... Jorge
Bélgica Castro ... Leonor
Roberto Farías ... Edmundo
Aline Küppenheim ... Teresa
Manuela Martelli ... Paula
Manuela Oyarzún ... Esmeralda
Eduardo Paxeco ... Mario
Luis Roque ... Sindicalista
Paula Sotelo ... Patricia




Release informations:

Complete name: La.Buena.Vida.(2008).DVDRip.Xvid.Ac3.5.1.lletaif.avi
Format: AVI
Format/Info: Audio Video Interleave
File size: 1.37 GiB
Duration: 1h 39mn
Overall bit rate: 1 975 Kbps
Writing application: Lavf51.19.0
Original source form/Name: DVD_VOLUME

Video:
Format: MPEG-4 Visual
Format profile: [email protected]
Format settings, BVOP: No
Format settings, QPel: No
Format settings, GMC: No warppoints
Format settings, Matrix: Default
Codec ID: XVID
Codec ID/Hint: XviD
Duration: 1h 39mn
Bit rate: 1 516 Kbps
Width: 704 pixels
Height: 398 pixels
Display aspect ratio: 16/9
Frame rate: 23.976 fps
Resolution: 24 bits
Colorimetry: 4:2:0
Scan type: Progressive
Bits/(Pixel*Frame): 0.226
Stream size: 1.05 GiB (77%)
Writing library: XviD 1.1.2 (UTC 2006-11-01)

Audio:
Format: AC-3
Format/Info: Audio Coding 3
Codec ID: 2000
Duration: 1h 39mn
Bit rate mode: Constant
Bit rate: 448 Kbps
Channel(s): 6 channels
Channel positions: Front: L C R, Surround: L R, LFE
Sampling rate: 48.0 KHz
Stream size: 318 MiB (23%)
Alignment: Aligned on interleaves
Interleave, duration: 32 ms (0.77 video frame)
Interleave, preload duration: 32 ms


PLEASE GUYS..... SEED THIS TORRENT.....

related torrents

Torrent name

health leech seeds Size
 

comments (0)

Main Menu