Other

The Dambusters][Avi][Hectorbusispector][H33t]

  • Download 5x Faster
  • Download torrent
  • Direct Download
  • Rate this torrent +  |  -
The Dambusters][Avi][Hectorbusispector][H33t]

Free and Direct Download with Usenet.nl 300GB+ free


Torrent info

Name:The Dambusters][Avi][Hectorbusispector][H33t]

Total Size: 707.24 MB

Magnet: Magnet Link

Seeds: 0

Leechers: 3

Stream: Watch Online @ Movie4u

Last Updated: 2010-03-10 06:36:08 (Update Now)

Torrent added: 2009-09-02 08:18:04





Torrent Files List


364080683[1].jpg (Size: 707.24 MB) (Files: 6)

 364080683[1].jpg

82.72 KB

 364082778[1].jpg

27.65 KB

 introduction to us, we are not pirates.txt

4.55 KB

 The Dambusters..txt

4.57 KB

 The Dambusters.avi

707.12 MB

 tracked_by_h33t_com.txt

0.02 KB
 

Announce URL: http://www.h33t.com:3310/announce

Torrent description

This upload is smaller than the othe i took down & better quality.
****************************************************************************************************************************
617 Squadron, RAF, "The Dambusters" was a single squadron formed during the Second World War
to carry out a single special and dangerous task.
That operation "Chastise" has since become a legend in the annals of military history
and it possess all the traditionally admired military attributes of originality,
surprise and heroism coupled with a very dramatic outcome. Operation Chastise has
in many ways overshadowed the later exploits of the men who formed the squadron.
Over the last few years some people have questioned the actions of Bomber
Command and the actions taken to destroy the industrial and domestic centres of Germany
during the Second World War. I myself, have taken a sideline to this question.
I do not condone or sanction what Bomber Command did in its attempt to destroy the industry of Germany.
I believe that the most dangerous thing on this planet is man, as soon as people start to attack each other,
the animal instinct takes over. Each will try to outwit or kill one another singly or in bulk should the chance arise.
To this end any aspect of war is bad.
People can pass comment on certain aspects of all wars but I do not believe it is right to criticise
someone or something that they were not involved in or with.
Modern information technology has made vast amounts of statistical and anecdotal
evidence available to the historian but what sometimes gets lost in this mass of information is the
immediacy and emotion caused by the raw fear of warfare.
Normal reactions to events judged sitting in the arm chair by the fire side are not the same as those
as when ones life and existence is tangibly at risk.
This website is a tribute to the personnel of and people associated 617 Squadron, "The Dambusters" primarily during
______________________________________________________________________________________________________________________________

General
Complete name : The Dambusters.avi
Format : AVI
Format/Info : Audio Video Interleave
File size : 707 MiB
Duration : 47mn 14s
Overall bit rate : 2 093 Kbps
Writing application : VirtualDubMod 1.5.4.1 (build 2178/release)
Writing library : VirtualDubMod build 2178/release

Video
Format : MPEG-4 Visual
Format profile : Streaming [email protected]
Format settings, BVOP : Yes
Format settings, QPel : No
Format settings, GMC : No warppoints
Format settings, Matrix : Custom
Codec ID : XVID
Codec ID/Hint : XviD
Duration : 47mn 14s
Bit rate : 1 974 Kbps
Width : 720 pixels
Height : 416 pixels
Display aspect ratio : 16/9
Frame rate : 25.000 fps
Resolution : 24 bits
Colorimetry : 4:2:0
Scan type : Progressive
Bits/(Pixel*Frame) : 0.264
Stream size : 667 MiB (94%)
Writing library : XviD 1.2.1 (UTC 2008-12-04)

Audio
Format : MPEG Audio
Format version : Version 1
Format profile : Layer 3
Codec ID : 55
Codec ID/Hint : MP3
Duration : 47mn 14s
Bit rate mode : Constant
Bit rate : 112 Kbps
Channel(s) : 2 channels
Sampling rate : 44.1 KHz
Resolution : 16 bits
Video delay : 1ms
Stream size : 37.8 MiB (5%)
Alignment : Split accross interleaves
Interleave, duration : 80 ms (2.00 video frames)
Interleave, preload duration : 500 ms
Writing library : LAME3.98r
Encoding settings : -m j -V 4 -q 2 -lowpass 15.6 -b 112
Language : English
____________________________________________________________________________________________________________________________________

Avi.

Sleeve.
Disc Art.

H33t.com

Tell A Friend
*************************************************************************************************************************************


related torrents

Torrent name

health leech seeds Size
 

comments (0)

Main Menu