Other

Oasis Lord Don't Slow Me Down][Avi][Hector,][H33t]

  • Download 5x Faster
  • Download torrent
  • Direct Download
  • Rate this torrent +  |  -
Oasis Lord Don't Slow Me Down][Avi][Hector,][H33t]

Anonymous and Free Direct Download 300GB+


Torrent info

Name:Oasis Lord Don't Slow Me Down][Avi][Hector,][H33t]

Total Size: 704.36 MB

Magnet: Magnet Link

Seeds: 0

Leechers: 0

Stream: Watch Online @ Movie4u

Last Updated: 2015-09-07 02:29:07 (Update Now)

Torrent added: 2009-09-02 08:11:13



VPN For Torrents

Torrent Files List


Art (Size: 704.36 MB) (Files: 7)

 Art

  001 (2).jpg

809.38 KB

  001 (3).jpg

988.72 KB

  001.jpg

466.21 KB

 introduction to us, we are not pirates.txt

4.55 KB

 Oasis.txt

4.08 KB

 OASIS_DISC_1.avi

702.14 MB

 tracked_by_h33t_com.txt

0.02 KB
 

tracker

leech seeds
 

Torrent description

Documentary tour film Lord Don’t Slow Me Down in stereo and surround sound.
Bonus audio commentary featuring the members of the band
A Noel Gallagher Q&A session with the fans filmed in New York in 2006
***********************************************************************************
Lord Don't Slow Me Down

Directed by Baillie Walsh

Produced by Josh Barwick & Donald Taylor

Starring Oasis

Music by Oasis

Cinematography Baillie Walsh

Editing by Struan Clay

Distributed by Black Dog Films

Release date(s) October 29, 2007

Running time 94:19 min

TV edit: 56:24 min

Language English
*************************************************************************************
General
Complete name : Oasis Lord Don't Slow Me Down][Avi][Hector,][H33t]\OASIS_DISC_1.avi
Format : AVI
Format/Info : Audio Video Interleave
File size : 702 MiB
Duration : 1h 33mn
Overall bit rate : 1 051 Kbps
Writing application : VirtualDubMod 1.5.4.1 (build 2178/release)
Writing library : VirtualDubMod build 2178/release

Video
Format : MPEG-4 Visual
Format profile : Streaming [email protected]
Format settings, BVOP : Yes
Format settings, QPel : No
Format settings, GMC : No warppoints
Format settings, Matrix : Custom
Codec ID : XVID
Codec ID/Hint : XviD
Duration : 1h 33mn
Bit rate : 818 Kbps
Width : 560 pixels
Height : 304 pixels
Display aspect ratio : 16/9
Frame rate : 25.000 fps
Resolution : 24 bits
Colorimetry : 4:2:0
Scan type : Progressive
Bits/(Pixel*Frame) : 0.192
Stream size : 546 MiB (78%)
Writing library : XviD 1.2.1 (UTC 2008-12-04)

Audio #1
Format : MPEG Audio
Format version : Version 1
Format profile : Layer 3
Codec ID : 55
Codec ID/Hint : MP3
Duration : 1h 33mn
Bit rate mode : Constant
Bit rate : 112 Kbps
Channel(s) : 2 channels
Sampling rate : 44.1 KHz
Resolution : 16 bits
Stream size : 74.8 MiB (11%)
Alignment : Split accross interleaves
Interleave, duration : 80 ms (2.00 video frames)
Interleave, preload duration : 500 ms
Writing library : LAME3.98r
Encoding settings : -m j -V 4 -q 2 -lowpass 15.6 -b 112
Language : English

Audio #2
Format : MPEG Audio
Format version : Version 1
Format profile : Layer 3
Codec ID : 55
Codec ID/Hint : MP3
Duration : 1h 33mn
Bit rate mode : Constant
Bit rate : 112 Kbps
Channel(s) : 2 channels
Sampling rate : 44.1 KHz
Resolution : 16 bits
Video delay : 480ms
Stream size : 74.8 MiB (11%)
Alignment : Split accross interleaves
Interleave, duration : 80 ms (2.00 video frames)
Interleave, preload duration : 500 ms
Writing library : LAME3.98r
Encoding settings : -m j -V 4 -q 2 -lowpass 15.6 -b 112
Language : English

***************************************************************************************
Avi

Art.

Info.

H33t.com

Tell A Friend.
**************************************************************************************

related torrents

Torrent name

health leech seeds Size
 


comments (0)

Main Menu