Drama

Enigma AC3 5,1 DVDRip[Eng]2001

  • Download 5x Faster
  • Download torrent
  • Direct Download
  • Rate this torrent +  |  -
Enigma AC3 5,1 DVDRip[Eng]2001

Free and Direct Download with Usenet.nl 300GB+ free


Torrent info

Name:Enigma AC3 5,1 DVDRip[Eng]2001

Total Size: 1.39 GB

Magnet: Magnet Link

Seeds: 13

Leechers: 10

Stream: Watch Online @ Movie4u

Last Updated: 2011-06-04 07:56:45 (Update Now)

Torrent added: 2009-09-02 08:08:22





Torrent Files List


Enigma-AC3-5,1-DVDRip[Eng]2001-CD1.jpg (Size: 1.39 GB) (Files: 5)

 Enigma-AC3-5,1-DVDRip[Eng]2001-CD1.jpg

163.19 KB

 Enigma-AC3-5,1-DVDRip[Eng]2001-Front.jpg

316.69 KB

 Enigma-AC3-5,1-DVDRip[Eng]2001-Info.txt

2.89 KB

 Enigma-AC3-5,1-DVDRip[Eng]2001.avi

1.39 GB

 Torrent downloaded from Demonoid.com.txt

0.05 KB
 

Announce URL: http://inferno.demonoid.com:3414/announce

Torrent description

http://www.imdb.com/title/tt0157583/

http://www.thefilmfactory.co.uk/enigma/

User Rating:6.4/10 - 9,106 votes

Drama,Mystery,Romance,Thriller,War

Director:Michael Apted

Cast:Dougray Scott/Kate Winslet/Saffron Burrows/Jeremy Northam, and others.

Plot:
During the heart of World War II, in March of 1943, cryptoanalysts at Britain's code-breaking center have discovered to their horror that
Nazi U-boats have changed their Enigma Code. Authorities enlist the help of a brilliant young man named Tom Jericho to help them break the
code again. The possibility of a spy within the British code-breakers' ranks looms and Tom's love, Claire, has disappeared. To solve the
mysteries, Tom recruits Claire's best friend, Hester Wallace. In investigating Claire's personal life, the pair discovers personal and
international betrayals .....

Info:

Covers included.

General
Format : AVI
Format/Info : Audio Video Interleave
File size : 1.39 GiB
Duration : 1h 53mn
Overall bit rate : 1 746 Kbps
Writing application : VirtualDubMod 1.5.4.1 (build 2178/release)
Writing library : VirtualDubMod build 2178/release

Video
Format : MPEG-4 Visual
Format profile : Streaming [email protected]
Format settings, BVOP : Yes
Format settings, QPel : No
Format settings, GMC : No warppoints
Format settings, Matrix : Default
Muxing mode : Packed bitstream
Codec ID : XVID
Codec ID/Hint : XviD
Duration : 1h 53mn
Bit rate : 1 291 Kbps
Width : 720 pixels
Height : 416 pixels
Display aspect ratio : 16/9
Frame rate : 25.000 fps
Resolution : 24 bits
Colorimetry : 4:2:0
Scan type : Progressive
Bits/(Pixel*Frame) : 0.172
Stream size : 1.03 GiB (74%)
Writing library : XviD 50

Audio
Format : AC-3
Format/Info : Audio Coding 3
Codec ID : 2000
Duration : 1h 53mn
Bit rate mode : Constant
Bit rate : 448 Kbps
Channel(s) : 6 channels
Channel positions : Front: L C R, Surround: L R, LFE
Sampling rate : 48.0 KHz
Stream size : 364 MiB (26%)
Alignment : Split accross interleaves
Interleave, duration : 80 ms (2.00 video frames)
Interleave, preload duration : 500 ms
Language : English

Enjoy....

related torrents

Torrent name

health leech seeds Size
 

comments (0)

Main Menu