Drama

Krabat AC3 5,1 DVDRip[Ger]2008

  • Download 5x Faster
  • Download torrent
  • Direct Download
  • Rate this torrent +  |  -
Krabat AC3 5,1 DVDRip[Ger]2008

Anonymous and free Direct Download 300GB+


Torrent info

Name:Krabat AC3 5,1 DVDRip[Ger]2008

Total Size: 1.38 GB

Magnet: Magnet Link

Seeds: 3

Leechers: 4

Stream: Watch Online @ Movie4u

Last Updated: 2010-09-14 08:46:33 (Update Now)

Torrent added: 2009-09-02 07:39:36



VPN For Torrents

Torrent Files List


Krabat-AC3-5,1-DVDRip[Ger]2008.avi (Size: 1.38 GB) (Files: 3)

 Krabat-AC3-5,1-DVDRip[Ger]2008.avi

1.38 GB

 Krabat-AC3-5,1-DVDRip[Ger]2008.txt

2.66 KB

 Torrent downloaded from Demonoid.com.txt

0.05 KB
 

Announce URL: http://inferno.demonoid.com:3413/announce

Torrent description

http://www.imdb.com/title/tt0772181/

http://www.krabat-derfilm.de/

User Rating:6.3/10 - 822 votes

Releasedate:Germany 27 March 2009 (DVD premiere)

Drama,Fantasy.

Director:Marco Kreuzpaintner

Cast:David Kross/Daniel Brühl/Christian Redl/Robert Stadlober, and others.

Plot:
The 30 years’ war and the plague in 17th century Germany leave a 13-year-old boy named Krabat an orphan. In search of food and shelter,
he is mysteriously guided to a mill, and becomes the owner’s apprentice. However, he soon learns that the mill is a school of black magic,
and there is a high price to pay for the Master’s lessons. Love, friendship, and loyalty save the young man from imminent death....

Info:

General
Format : AVI
Format/Info : Audio Video Interleave
File size : 1.38 GiB
Duration : 1h 54mn
Overall bit rate : 1 716 Kbps
Writing application : VirtualDubMod 1.5.4.1 (build 2178/release)
Writing library : VirtualDubMod build 2178/release

Video
Format : MPEG-4 Visual
Format profile : [email protected]
Format settings, BVOP : No
Format settings, QPel : No
Format settings, GMC : No warppoints
Format settings, Matrix : Default
Codec ID : XVID
Codec ID/Hint : XviD
Duration : 1h 54mn
Bit rate : 1 260 Kbps
Width : 720 pixels
Height : 304 pixels
Display aspect ratio : 2.35
Frame rate : 25.000 fps
Resolution : 24 bits
Colorimetry : 4:2:0
Scan type : Progressive
Bits/(Pixel*Frame) : 0.230
Stream size : 1.01 GiB (73%)
Writing library : XviD 50

Audio
Format : AC-3
Format/Info : Audio Coding 3
Codec ID : 2000
Duration : 1h 54mn
Bit rate mode : Constant
Bit rate : 448 Kbps
Channel(s) : 6 channels
Channel positions : Front: L C R, Surround: L R, LFE
Sampling rate : 48.0 KHz
Stream size : 368 MiB (26%)
Alignment : Split accross interleaves
Interleave, duration : 80 ms (2.00 video frames)
Interleave, preload duration : 500 ms
Language : German

Enjoy...

related torrents

Torrent name

health leech seeds Size
 


comments (0)

Main Menu